<?xml version="1.0" standalone="no"?>
<!DOCTYPE svg PUBLIC "-//W3C//DTD SVG 1.1//EN" "http://www.w3.org/Graphics/SVG/1.1/DTD/svg11.dtd" >
<svg xmlns="http://www.w3.org/2000/svg">
<defs>
  <font id="icons" horiz-adv-x="147.38672223876154">
    <font-face font-family="icons"
      units-per-em="128" ascent="104"
      descent="24" />
    <missing-glyph horiz-adv-x="0" />
    <glyph glyph-name="appointment"
      unicode="&#xE001;"
      horiz-adv-x="128" d="M102.6851198100534 42.0489237401981V53.3882345590303H17.7892467743447V0.9509825361617L57.5480646068293 0.9504826767472V4.6994282857946H53.9970633259396C53.9970633259396 6.2612390265238 53.9970633259396 15.6198569152426 53.9970633259396 17.1806679371427H59.5674966415696V20.9296135461901H53.9970633259396V33.4086038301728L70.2264987972133 33.4098534787091L70.2269986566278 49.6392889499828H82.7062388703178V41.6540348027117H86.4551844793652V49.6392889499828H98.9364241307133V42.0489237401981zM37.7676278546659 33.4101034084164H50.2476178574776V20.9296135461901H37.7676278546659zM53.9970633259396 49.6392889499828H66.4775531881658V37.1587990877566H53.9970633259396zM37.7676278546659 49.6392889499828H50.2481177168921V37.1587990877566H37.7676278546659zM21.5381923833922 49.6392889499828H34.0189321753257V37.1587990877566H21.5381923833922zM21.5381923833922 33.4101034084164H34.0189321753257V20.9296135461901H21.5381923833922zM34.0186822456184 4.6999281452092H21.5381923833922V17.1806679371427H34.0189321753257V4.6999281452092zM37.7676278546659 4.6999281452092V17.1806679371427H50.2476178574776V4.6999281452092zM93.5551876034865 37.1577993689275C76.6939298322347 37.1577993689275 62.9762879190228 23.4401574557156 62.9762879190228 6.5788996844637C62.9762879190228 -1.1076884626199 65.840482364335 -8.4548720672311 71.0415195726202 -14.109531694211L73.8009934705864 -11.5717454465931C69.2380268049611 -6.6108906869943 66.7252335280702 -0.1649536067981 66.7252335280702 6.5788996844637C66.7252335280702 21.3727389171795 78.7610984410635 33.40885375988 93.5551876034865 33.40885375988S120.3853916086101 21.3729888468868 120.3853916086101 6.5788996844637S108.3495266956169 -20.2510543909525 93.5551876034865 -20.2510543909525C87.2637070823831 -20.2510543909525 81.1489268643194 -18.0286794339092 76.3372801399606 -13.9935643100378L73.9282076915867 -16.8662563653972C79.4139148364522 -21.4664625574057 86.3842044425005 -24 93.5549376737793 -24C110.4161954450311 -24 124.1340872879503 -10.2823580867881 124.1340872879503 6.5788996844637S110.4164453747384 37.1577993689275 93.5551876034865 37.1577993689275zM91.5637476959605 27.2783279702584V2.8661938829704H109.0968165203537V6.6151394920179H95.312693305008V27.2783279702584zM7.6146083913899 60.083851416789H17.7892467743447V63.8327970258365H7.6146083913899V91.7924333781124H15.7773126308226V82.4725545940204H15.7775625605299V82.4718048048986H30.8253303758318V82.4725545940204H30.8255803055391V91.7924333781124H40.4003873910463V82.4725545940204H40.4016370395826V82.4718048048986H55.4491549251773V91.7924333781124H65.0254615889281V82.4718048048986H80.0729794745228V82.4725545940204H80.0742291230591V91.7924333781124H89.6490362085663V82.4725545940204H89.6492861382736V82.4718048048986H104.6970539535756V82.4725545940204H104.6973038832828V91.7924333781124H112.8600081227155V63.8327970258365H21.5381923833922V60.083851416789H112.8600081227155V35.9231466150145H116.608953731763V95.5413789871599H104.6970539535756V99.3315629979068L101.2247805304758 104H93.1213096316661L89.6490362085663 99.3315629979068V95.5413789871599H80.0729794745228V99.3315629979068L76.6007060514231 104H68.4974850823206L65.0252116592209 99.3315629979068V95.5413789871599H55.44890499547V99.3315629979068L51.9768815020776 104H43.8736605329751L40.4013871098754 99.3315629979068V95.5413789871599H30.8253303758318V99.3315629979068L27.3530569527321 104H19.2498359836296L15.7775625605299 99.3315629979068V95.5413789871599H3.8656627823425V-8.8820019369552H59.9973757380737V-5.1330563279078H7.6146083913899zM95.0050298353588 100.2510543909526H99.3410603267831L100.9481083445281 98.0901621418976V86.2215002030679H93.3982317473211V98.0901621418976zM68.7744071979756 98.0901621418976L70.3814552157206 100.2510543909526H74.7172357774376L76.3242837951826 98.0901621418976V86.2215002030679H68.7751569870974V95.5413789871599H68.7746571276829V98.0901621418976zM45.7573807366678 100.2510543909526H50.0931612983848L51.7002093161299 98.0901621418976V95.5413789871599H51.6997094567153V86.2215002030679H44.1505826486301V98.0901621418976zM21.1335561873223 100.2510543909526H25.4695866787466L27.0766346964916 98.0901621418976V86.2215002030679H19.5265081695773V98.0901621418976zM73.2336530350839 69.9925645912087H69.4847074260364V73.7415102002562H73.2336530350839zM61.9868162079415 69.9925645912087H58.2378705988941V73.7415102002562H61.9868162079415zM50.7399793807991 69.9925645912087H46.9910337717517V73.7415102002562H50.7399793807991zM71.8842825455341 6.6151394920179H75.6332281545815V2.8661938829704H71.8842825455341zM91.7069574182261 -11.5405042331844H95.4559030272736V-15.2894498422319H91.7069574182261z" />
    <glyph glyph-name="bar_chart_statspol"
      unicode="&#xE002;"
      horiz-adv-x="128" d="M64.0026594639518 104A64.0026594639518 64.0026594639518 0 1 1 128.0053189279036 40.0186162476626A64.0026594639518 64.0026594639518 0 0 1 64.0026594639518 104zM75.2309162684396 62.3581134427592H84.8049864949096V9.1688344068149H75.2309162684396zM61.4017037190941 76.7192187824642H70.9757739455641V9.1688344068149H61.4017037190941zM47.8384375649283 59.1667567006025H57.4125077913983V9.1688344068149H47.8384375649283zM104.2190733430293 3.318013712861H26.8286723457303V79.1127363390817A1.3297319758986 1.3297319758986 0 0 0 29.4881362975275 79.1127363390817V5.9774776646582H104.2190733430293A1.3297319758986 1.3297319758986 0 0 0 104.2190733430293 3.318013712861z" />
    <glyph glyph-name="bug"
      unicode="&#xE003;"
      horiz-adv-x="128" d="M106.66025 33.2955L127.999 45.5525L125.4085 50.56325L105.9495 39.38975L90.4755 41.76625C90.51 43.138 90.44125 44.49625 90.277 45.8315C93.6735 46.0685 96.86 47.38475 99.2975 49.82225C102.28525 52.81 103.58825 56.91925 103.2825 61.15825C112.502 64.02375 112.76175 70.56475 112.754 73.83925C112.7425 77.40225 109.43775 76.18525 109.086 75.23775C107 69.969 103.13325 69.26025 100.05775 70.309A20.88075 20.88075 0 0 1 97.46725 73.467A21.107 21.107 0 0 1 94.3075 76.05925C93.26075 79.133 93.9675 82.9995 99.24 85.0875C100.18375 85.437 101.4025 88.742 97.83775 88.75175C94.5635 88.76125 88.02225 88.50125 85.15675 79.284C80.9195 79.58575 76.80825 78.285 73.82075 75.299C71.38325 72.8595 70.06875 69.673 69.828 66.27625A27.541 27.541 0 0 1 65.76675 66.47675L63.39025 81.94875L74.56225 101.40975L69.5535 104L57.2965 82.65725L59.8985 65.722C57.22775 65.10875 54.58 64.123 52.03525 62.7725L42.82375 69.98025L18.967 75.87175L17.14075 70.19225L39.88175 64.57375L46.69025 59.24575C45.68525 58.44125 44.7035 57.57775 43.7675 56.63975A35.11 35.11 0 0 1 40.2295 52.498L22.1955 53.50675L0.00075 41.575L2.43475 36.47425L23.082 47.57725L36.85175 46.8075C31.97275 36.3215 33.1265 24.3855 40.7565 16.7555C48.3865 9.12725 60.3225 7.9735 70.8065 12.8525L71.5785 -0.91725L60.4755 -21.5665L65.576 -24L77.508 -1.8055L76.4995 16.22825A35.67 35.67 0 0 1 80.64125 19.76625C81.57725 20.70425 82.44075 21.68425 83.24675 22.68925L88.573 15.88425L94.19325 -6.8605L99.871 -5.034L93.97925 18.8245L86.7735 28.03425C88.122 30.579 89.10775 33.22875 89.723 35.89725L106.66025 33.2955z" />
    <glyph glyph-name="cancel"
      unicode="&#xE004;"
      horiz-adv-x="128" d="M71.0713611887477 39.9996250007324L126.535502860346 95.4640166718425C128.4882490463886 97.4167628578851 128.4882490463886 100.5827566743034 126.535502860346 102.5352528608343C124.5827566743034 104.4877490473651 121.4167628578851 104.4879990468769 119.4642666713542 102.5352528608343L63.9998750002442 47.0708611897242L8.5357333286458 102.5352528608343C6.5829871426032 104.4879990468769 3.4169933261849 104.4879990468769 1.464497139654 102.5352528608343C-0.4879990468769 100.5825066747917 -0.4882490463886 97.4165128583733 1.464497139654 95.4640166718425L56.9286388112523 39.9998750002441L1.464497139654 -15.4645166708659C-0.4882490463886 -17.4172628569085 -0.4882490463886 -20.5832566733268 1.464497139654 -22.5357528598577C2.4407452329195 -23.5120009531231 3.7204927334126 -24 5.0002402339058 -24C6.279987734399 -24 7.5594852353804 -23.5120009531231 8.5359833281576 -22.5357528598577L63.9998750002442 32.9283888117406L119.4640166718425 -22.5357528598577C120.4402647651079 -23.5120009531231 121.7200122656011 -24 122.9997597660942 -24S125.5590047675688 -23.5120009531231 126.535502860346 -22.5357528598577C128.4882490463886 -20.5830066738151 128.4882490463886 -17.4170128573968 126.535502860346 -15.4645166708659L71.0713611887477 39.9996250007324z" />
    <glyph glyph-name="checkmark"
      unicode="&#xE005;"
      horiz-adv-x="128" d="M126.1255 85.126C123.62625 87.6255 119.57425 87.6255 117.0745 85.126L40.3985 8.44925L10.9255 37.92225C8.42625 40.42175 4.37425 40.4215 1.8745 37.92225C-0.625 35.423 -0.625 31.371 1.8745 28.8715L35.873 -5.1265C38.3715 -7.62575 42.4265 -7.624 44.924 -5.1265L126.1255 76.075C128.625 78.57425 128.62475 82.6265 126.1255 85.126z" />
    <glyph glyph-name="chevron-small-down"
      unicode="&#xE006;"
      horiz-adv-x="128" d="M65.92 35.52L87.68 55.36C89.6 57.28 92.16 57.28 94.08 55.36C96 53.44 96 50.88 94.08 48.96L69.12 24.64C67.2 22.72 64.64 22.72 62.72 24.64L37.76 48.96C35.84 50.88 35.84 53.44 37.76 55.36S42.24 57.28 44.16 55.36C43.52 55.36 65.92 35.52 65.92 35.52z" />
    <glyph glyph-name="chevron-small-right"
      unicode="&#xE007;"
      horiz-adv-x="128" d="M70.4 40L50.2976 61.888C48.5824 63.616 48.5824 66.4128 50.2976 68.1472C52.0128 69.8752 54.784 69.8752 56.4992 68.1472L81.0112 43.136C82.7264 41.4016 82.7264 38.5984 81.0112 36.8704L56.4992 11.8592C54.7904 10.1184 52.0128 10.1312 50.2976 11.8592S48.5824 16.384 50.2976 18.1184L70.4 40z" />
    <glyph glyph-name="chevron-small-up"
      unicode="&#xE008;"
      horiz-adv-x="128" d="M65.92 44.48L44.16 24.64C42.24 22.72 39.68 22.72 37.76 24.64C35.84 26.56 35.84 29.12 37.76 31.04L62.72 55.36C64.64 57.28 67.2 57.28 69.12 55.36L94.08 31.04C96 29.12 96 26.56 94.08 24.64S89.6 22.72 87.68 24.64L65.92 44.48z" />
    <glyph glyph-name="cookies"
      unicode="&#xE009;"
      horiz-adv-x="128.23030587499022" d="M123.6141750762732 41.4268950950481A14.1287647657045 14.1287647657045 0 0 0 110.7070327779082 49.798012985997A1.5420480325432 1.5420480325432 0 0 1 108.4240006258312 50.4488774153172A14.1387780646171 14.1387780646171 0 0 0 86.5449425017602 65.2785731049049A1.2917155597278 1.2917155597278 0 0 1 84.9428146757412 66.8206211374482A14.1387780646171 14.1387780646171 0 0 0 67.4295548775718 78.6062739575999A14.0186184776656 14.0186184776656 0 0 0 70.0129859970273 88.8298521473832A1.1114761793006 1.1114761793006 0 0 1 69.4722678557459 90.5521395603536A14.1588046624423 14.1588046624423 0 0 0 60.0597668778847 103.8998670108738V103.9899867010874A1.6121411249315 1.6121411249315 0 0 1 59.7493546115935 103.9899867010874A63.8648204646796 63.8648204646796 0 0 1 21.8590315262458 88.2390675115388A12.1561448799186 12.1561448799186 0 0 0 6.9892826410076 69.0736133927873A64.0851130407573 64.0851130407573 0 0 1 61.8421340843308 -24A11.8257060158022 11.8257060158022 0 0 0 61.6418681060784 -21.8371274348745A12.1561448799186 12.1561448799186 0 0 0 85.8640381757021 -20.2850661034186A64.1351795353203 64.1351795353203 0 0 1 128.2603457717281 40.0550731440194C128.2603457717281 40.7660173668153 128.2603457717281 41.4769615896112 128.2603457717281 42.1879058124071A14.0186184776656 14.0186184776656 0 0 0 123.6141750762732 41.4268950950481zM34.736133927873 2.0546037706329A12.1761714777439 12.1761714777439 0 1 0 46.9022921067042 14.2107486505515A12.1661581788313 12.1661581788313 0 0 0 34.736133927873 2.0546037706329zM52.129234139091 54.7445826488305A12.1661581788313 12.1661581788313 0 1 0 64.2953923179222 66.9107408276617A12.1661581788313 12.1661581788313 0 0 0 52.129234139091 54.7445826488305zM88.4474692951576 11.3669717593679A15.0199483689275 15.0199483689275 0 1 0 103.4674176640851 26.3869201282954A15.0199483689275 15.0199483689275 0 0 0 88.4474692951576 11.3669717593679z" />
    <glyph glyph-name="cross"
      unicode="&#xE00A;"
      horiz-adv-x="128" d="M91.8272 8.9664C88.8256 5.9648 83.9616 5.9648 80.9664 8.9664L64 28.3584L47.0336 8.9728C44.032 5.9712 39.168 5.9712 36.1728 8.9728C33.1712 11.9744 33.1712 16.8384 36.1728 19.8336L53.824 39.9936L36.1664 60.1664C33.1648 63.168 33.1648 68.0256 36.1664 71.0272S44.0256 74.0288 47.0272 71.0272L64 51.6288L80.9664 71.0272C83.968 74.0288 88.8256 74.0288 91.8272 71.0272S94.8288 63.1616 91.8272 60.1664L74.176 39.9936L91.8272 19.8336C94.8288 16.832 94.8288 11.968 91.8272 8.9664z" />
    <glyph glyph-name="envelop"
      unicode="&#xE00B;"
      horiz-adv-x="128" d="M116 88H12C5.4 88 0 82.6 0 76V-4C0 -10.6 5.4 -16 12 -16H116C122.6 -16 128 -10.6 128 -4V76C128 82.6 122.6 88 116 88zM49.844 35.204L16 8.844V71.548L49.844 35.204zM22.048 72H105.952L64 40.5L22.048 72zM51.16 33.788L64 20L76.84 33.788L103.16 0H24.844L51.164 33.788zM78.156 35.204L112 71.548V8.844L78.156 35.204z" />
    <glyph glyph-name="error"
      unicode="&#xE00C;"
      horiz-adv-x="128" d="M64.016 96C33.072 96 8 70.928 8 40S33.072 -16 64.016 -16C94.936 -16 120.016 9.072 120.016 40S94.936 96 64.016 96zM96.216 21.728C96.712 21.224 97.016 20.536 97.016 19.816C97.016 19.088 96.72 18.4 96.216 17.896L86.12 7.8C85.608 7.304 84.92 7 84.2 7S82.792 7.288 82.28 7.8L64.016 26.064L45.728 7.8C45.216 7.304 44.528 7 43.808 7S42.4 7.288 41.888 7.8L31.8 17.896C31.296 18.392 31 19.08 31 19.816C31 20.52 31.288 21.224 31.8 21.72L50.064 40L31.8 58.272C31.296 58.784 31 59.472 31 60.192S31.288 61.6 31.8 62.112L41.896 72.208C42.4 72.712 43.088 73.008 43.816 73.008C44.528 73.008 45.224 72.72 45.736 72.208L64.016 53.936L82.28 72.208C82.792 72.712 83.48 73.008 84.2 73.008S85.608 72.72 86.12 72.208L96.216 62.112C96.712 61.608 97.016 60.92 97.016 60.192C97.016 59.48 96.72 58.784 96.216 58.272L77.952 40L96.216 21.728z" />
    <glyph glyph-name="export_statspol"
      unicode="&#xE00D;"
      horiz-adv-x="128" d="M78.7786411801371 60.2305422813214H95.6875129856638L76.826594639518 79.0914606274673V62.1825888219406A1.9520465406192 1.9520465406192 0 0 1 78.7786411801371 60.2305422813214zM64.0026594639518 104A64.0026594639518 64.0026594639518 0 1 1 128.0053189279036 40.0186162476626A64.0026594639518 64.0026594639518 0 0 1 64.0026594639518 104zM99.697984624974 44.9599002701018A1.3297319758986 1.3297319758986 0 0 0 97.0385206731768 44.9599002701018V57.5710783295242H78.7786411801371A4.61682942032 4.61682942032 0 0 0 74.1671306877208 62.1825888219406V81.5062538956992H38.7962601288178A2.9307292748805 2.9307292748805 0 0 1 35.8708497818408 78.5808435487222V1.9882817369624A2.9307292748805 2.9307292748805 0 0 1 38.7962601288178 -0.9371286100145H94.1131103261999A2.9307292748805 2.9307292748805 0 0 1 97.0385206731768 1.9882817369624V17.7429461874091A1.3297319758986 1.3297319758986 0 0 0 99.697984624974 17.7429461874091V1.9882817369624A5.5901932266777 5.5901932266777 0 0 0 94.1131103261999 -3.5965925618117H38.7962601288178A5.5901932266777 5.5901932266777 0 0 0 33.2113858300436 1.9882817369624V78.5808435487222A5.5901932266777 5.5901932266777 0 0 0 38.7962601288178 84.1657178474964H75.4968626636194L99.697984624974 59.9858715977561zM46.7746519842094 29.9126532308332A1.3297319758986 1.3297319758986 0 0 0 46.7746519842094 32.5721171826304H85.3953874922086L69.2364845210887 48.7310201537503A1.3297319758986 1.3297319758986 0 1 0 71.1193849989612 50.6139206316227L90.4856014959485 31.2423852067318L71.1193849989612 11.8708497818409A1.3297319758986 1.3297319758986 0 0 0 69.2364845210887 13.7537502597133L85.3953874922086 29.9126532308332z" />
    <glyph glyph-name="facebook"
      unicode="&#xE00E;"
      horiz-adv-x="128" d="M128 40C128 75.34625 99.34625 104 64 104C28.65375 104 0 75.34625 0 40C0 8.05575 23.404 -18.42125 54 -23.2225L54 21.5L37.75 21.5L37.75 40L54 40L54 54.1C54 70.14 63.55475 79 78.17375 79C85.176 79 92.5 77.75 92.5 77.75L92.5 62L84.42975 62C76.4795 62 74 57.06675 74 52.0055L74 40L91.75 40L88.9125 21.5L74 21.5L74 -23.2225C104.59625 -18.42125 128 8.05575 128 40z" />
    <glyph glyph-name="facebook_inverted"
      unicode="&#xE00F;"
      horiz-adv-x="128" d="M128 40C128 75.3422222222222 99.3422222222222 104 64 104S0 75.3422222222222 0 40C0 8.0592592592593 23.4074074074074 -18.4177777777778 53.997037037037 -23.2177777777778V21.4992592592592H37.7481481481481V40H53.997037037037V54.1037037037037C53.997037037037 70.1392592592593 63.5496296296296 79.0044444444445 78.1748148148148 79.0044444444445C85.1792592592593 79.0044444444445 92.5037037037037 77.76 92.5037037037037 77.76V62.0088888888889H84.4325925925926C76.48 62.0088888888889 74.002962962963 57.0785185185185 74.002962962963 52.0177777777778V40H91.7570370370371L88.9244444444445 21.4992592592592H74.002962962963V-23.2177777777778C104.5925925925926 -18.4177777777778 128 8.0592592592593 128 40zM88.9125925925926 21.4992592592592L91.7451851851852 40H74.002962962963V52.0059259259259C74.002962962963 57.0666666666667 76.48 61.997037037037 84.4325925925926 61.997037037037H92.5037037037037V77.7481481481482C92.5037037037037 77.7481481481482 85.1792592592593 78.9925925925926 78.1748148148148 78.9925925925926C63.5614814814815 78.9925925925926 53.997037037037 70.1274074074074 53.997037037037 54.0918518518519V39.9881481481481H37.7481481481481V21.4874074074074H53.997037037037V-23.2296296296296C57.2562962962963 -23.7392592592593 60.5985185185185 -24.0118518518518 64 -24.0118518518518C67.4014814814815 -24.0118518518518 70.7437037037037 -23.7511111111111 74.002962962963 -23.2296296296296V21.4992592592592H88.9125925925926z" />
    <glyph glyph-name="faq"
      unicode="&#xE010;"
      horiz-adv-x="128" d="M40 -2.666625H101.333375L117.333375 -18.666625V37.333375C117.333375 43.2 112.533375 48 106.666625 48H40C34.133375 48 29.333375 43.2 29.333375 37.333375V8C29.333375 2.133375 34.133375 -2.666625 40 -2.666625zM76.8 16.533375H67.2L65.333375 10.933375H59.466625L69.333375 37.6H74.4L84.266625 10.933375H78.4L76.8 16.533375zM68.533375 20.8H75.2L72 30.933375L68.533375 20.8zM88 37.333375H26.666625L10.666625 21.333375V82.666625C10.666625 88.533375 15.466625 93.333375 21.333375 93.333375H88C93.866625 93.333375 98.666625 88.533375 98.666625 82.666625V48C98.666625 42.133375 93.866625 37.333375 88 37.333375zM67.733375 66.133375C67.733375 63.466625 67.2 61.333375 66.4 59.466625S64.533375 56 62.933375 54.933375L67.466625 51.466625L64 48.266625L58.133375 52.8C57.6 52.8 56.8 52.533375 56 52.533375C54.4 52.533375 52.8 52.8 51.2 53.333375C49.866625 53.866625 48.533375 54.933375 47.466625 56C46.4 57.066625 45.6 58.666625 45.066625 60.266625C44.533375 61.866625 44.266625 63.733375 44.266625 65.866625V66.933375C44.266625 69.066625 44.533375 70.933375 45.066625 72.533375C45.6 74.133375 46.4 75.733375 47.466625 76.8C48.533375 77.866625 49.6 78.933375 51.2 79.466625C52.533375 80 54.133375 80.266625 56 80.266625C57.6 80.266625 59.2 80 60.8 79.466625C62.133375 78.933375 63.466625 77.866625 64.533375 76.8C65.6 75.733375 66.4 74.133375 66.933375 72.533375C67.466625 70.933375 67.733375 69.066625 67.733375 66.933375V66.133375zM61.866625 67.466625C61.866625 70.4 61.333375 72.533375 60.266625 73.866625C59.2 75.466625 57.866625 76 56 76C54.133375 76 52.533375 75.2 51.733375 73.866625C50.666625 72.266625 50.133375 70.133375 50.133375 67.466625V66.133375C50.133375 64.8 50.4 63.466625 50.666625 62.4C50.933375 61.333375 51.2 60.266625 51.733375 59.733375C52.266625 58.933375 52.8 58.4 53.6 58.133375C54.4 57.866625 55.2 57.6 56 57.6C57.866625 57.6 59.466625 58.4 60.266625 59.733375C61.333375 61.333375 61.866625 63.466625 61.866625 66.4V67.466625z" />
    <glyph glyph-name="feed"
      unicode="&#xE011;"
      horiz-adv-x="128" d="M64 104C28.656 104 0 75.344 0 40S28.656 -24 64 -24S128 4.656 128 40S99.344 104 64 104zM47.616 16.196C43.532 16.196 40.216 19.488 40.216 23.568C40.216 27.628 43.532 30.956 47.616 30.956C51.716 30.956 55.024 27.624 55.024 23.568C55.024 19.488 51.712 16.196 47.616 16.196zM66.204 16.208C66.204 23.172 63.496 29.724 58.588 34.624C53.676 39.54 47.152 42.252 40.212 42.252V52.908C60.44 52.908 76.904 36.444 76.904 16.208H66.204zM85.096 16.212C85.096 40.984 64.956 61.148 40.216 61.144V71.804C70.856 71.804 95.788 46.856 95.788 16.212H85.096z" />
    <glyph glyph-name="feed_inverted"
      unicode="&#xE012;"
      horiz-adv-x="128" d="M64 104C28.656 104 0 75.344 0 40S28.656 -24 64 -24S128 4.656 128 40S99.344 104 64 104zM47.616 16.196C43.532 16.196 40.216 19.488 40.216 23.568C40.216 27.628 43.532 30.956 47.616 30.956C51.716 30.956 55.024 27.624 55.024 23.568C55.024 19.488 51.712 16.196 47.616 16.196zM66.204 16.208C66.204 23.172 63.496 29.724 58.588 34.624C53.676 39.54 47.152 42.252 40.212 42.252V52.908C60.44 52.908 76.904 36.444 76.904 16.208H66.204zM85.096 16.212C85.096 40.984 64.956 61.148 40.216 61.144V71.804C70.856 71.804 95.788 46.856 95.788 16.212H85.096z" />
    <glyph glyph-name="file"
      unicode="&#xE013;"
      horiz-adv-x="128" d="M108 104H12C5.4 104 0 98.6 0 92V-12C0 -18.6 5.4 -24 12 -24H108C114.6 -24 120 -18.6 120 -12V92C120 98.6 114.6 104 108 104zM104 -8H16V88H104V-8zM32 48H88V40H32V48zM32 32H88V24H32V32zM32 16H88V8H32V16zM32 64H88V56H32V64z" />
    <glyph glyph-name="filter"
      unicode="&#xE014;"
      horiz-adv-x="128" d="M114.10025 104H13.89975C10.65575 104 8.0165 101.36075 8.0165 98.117V86.228C8.0165 84.41825 8.64625 82.649 9.78925 81.24575L51.175 30.454C51.77425 29.7185 52.10475 28.7905 52.10475 27.841V-20.1175C52.10475 -21.47175 52.7925 -22.70525 53.9445 -23.41725C54.5715 -23.80475 55.275 -24 55.98125 -24C56.57275 -24 57.16625 -23.863 57.7185 -23.587L72.64275 -16.12475C74.64875 -15.12175 75.895 -13.1055 75.895 -10.86275V27.841C75.895 28.7905 76.22525 29.7185 76.825 30.45425L118.21075 81.246C119.35375 82.649 119.9835 84.41825 119.9835 86.22825V98.117C119.9835 101.36075 117.34425 104 114.10025 104zM72.14525 27.841V-10.863C72.14525 -11.67625 71.69325 -12.40725 70.96575 -12.771L56.0415 -20.23325C56.018 -20.24525 55.97725 -20.2655 55.916 -20.22775S55.85475 -20.14475 55.85475 -20.118V27.841C55.85475 27.92925 55.852 28.01725 55.849 28.10525H72.15075C72.148 28.01725 72.14525 27.92925 72.14525 27.841zM116.2335 87.968H110.0925C109.05675 87.968 108.2175 87.12875 108.2175 86.093C108.2175 85.05725 109.05675 84.218 110.0925 84.218H115.711C115.5935 84.00625 115.45775 83.804 115.30375 83.61475L73.91825 32.82325C73.66875 32.51725 73.4455 32.19275 73.246 31.85525H54.75425C54.555 32.19275 54.3315 32.517 54.08225 32.823L12.6965 83.61475C12.54225 83.804 12.40675 84.00625 12.28925 84.218H17.90925C18.945 84.218 19.78425 85.05725 19.78425 86.093C19.78425 87.12875 18.945 87.968 17.90925 87.968H11.76675V98.117C11.76675 99.29325 12.7235 100.25 13.89975 100.25H114.10075C115.277 100.25 116.23375 99.29325 116.23375 98.117V87.968zM102.07525 87.968H25.9235C24.88775 87.968 24.0485 87.12875 24.0485 86.093C24.0485 85.05725 24.88775 84.218 25.9235 84.218H102.075C103.11075 84.218 103.95 85.05725 103.95 86.093C103.95 87.12875 103.11075 87.968 102.07525 87.968z" />
    <glyph glyph-name="filter_statspol"
      unicode="&#xE015;"
      horiz-adv-x="128" d="M56.0774568875961 31.3753584043216L71.9278620403075 31.3753584043216L96.9800124662373 55.9541242468315L31.0253064616663 55.9541242468315L56.0774568875961 31.3753584043216zM57.0029503428215 28.4499480573447L57.0029503428215 0.5681279867027L70.9917307292749 8.3444005817577L70.7576979015167 28.4499480573447L57.0029503428215 28.4499480573447zM63.9973405360482 104A64.0026594639518 64.0026594639518 0 1 1 128 40.0186162476626A63.9973405360482 63.9973405360482 0 0 1 63.9973405360482 104zM101.5596093912321 58.0657386245585A1.9573654685228 1.9573654685228 0 0 0 101.5117390400997 57.6295865364638A1.324413047995 1.324413047995 0 0 0 101.1606897984625 56.3370870558903L73.4065239975067 29.1041761894868L73.6724703926865 6.7646789943902L54.3381674631207 -3.974236442967V29.3541658009557L26.8393102015375 56.3370870558903A1.3137751921878 1.3137751921878 0 0 0 26.5095366715147 57.6295865364637A1.9573654685228 1.9573654685228 0 0 0 26.4616663203823 58.0657386245585V68.1397880739663A2.1275711614378 2.1275711614378 0 0 0 28.5892374818201 70.2673592354041H99.4479950135051A2.1275711614378 2.1275711614378 0 0 0 101.5755661749429 68.1397880739663zM29.0998545605651 67.5919384998961H98.9054643673385V58.6135881986287H29.0998545605651V67.5919384998961z" />
    <glyph glyph-name="folder-close"
      unicode="&#xE016;"
      horiz-adv-x="128" d="M0 64H128L120 -16H8L0 64zM116 80L120 72H8L16 88H60L64 80H116z" />
    <glyph glyph-name="folder-open"
      unicode="&#xE017;"
      horiz-adv-x="128" d="M104 -16L128 48H24L0 -16H104zM16 56L0 -16V88H36L52 72H104V56H16z" />
    <glyph glyph-name="forbidden"
      unicode="&#xE018;"
      horiz-adv-x="128" d="M64 104C28.711 104 0 75.289 0 40S28.711 -24 64 -24S128 4.711 128 40S99.289 104 64 104zM64 -8C37.53375 -8 16 13.53375 16 40C16 50.1015 19.0625 59.651 24.8855 67.7995L91.7995 0.8855C83.651 -4.9375 74.1015 -8 64 -8zM103.1145 12.2005L36.2005 79.1145C44.349 84.9375 53.8985 88 64 88C90.46625 88 112 66.46625 112 40C112 29.8985 108.9375 20.349 103.1145 12.2005z" />
    <glyph glyph-name="heatmap_statspol"
      unicode="&#xE019;"
      horiz-adv-x="128" d="M66.5929773530023 13.2963224600042L70.6034489923125 16.2323706627883A8.052856846042 8.052856846042 0 0 1 73.5022646997715 20.3492208601704C74.5288177851652 23.7533347184708 73.5022646997715 27.3170164138791 72.4384791190526 29.7105339704966A48.3065032204446 48.3065032204446 0 0 1 68.6248078121754 36.3379181383752C68.1301475171411 37.0985248285893 67.6354872221068 37.8644504467069 67.1621026386869 38.6303760648244C63.8537294826512 43.9493039684189 62.0293372117183 48.773571576979 61.6570122584667 53.2148763764804A16.1482651153127 16.1482651153127 0 0 1 60.5081238312903 47.3959692499481A33.3390400997299 33.3390400997299 0 0 1 61.3910658632869 40.6622065239975A40.4238520673177 40.4238520673177 0 0 0 62.3112403906088 34.1305630583836A6.8348223561188 6.8348223561188 0 0 0 61.6144608352379 30.4817785165178A3.9253687928527 3.9253687928527 0 0 0 57.8114273841679 28.5616455433202C55.3806773322252 28.7903594431748 54.1626428423021 30.32221067941 53.5562850612923 32.0349054643674C52.2052773737793 27.5510492416372 52.2691045086225 20.6577186785789 58.0880116351548 14.5994597963848L60.2528152919177 12.3442343652608H57.1252856846042A17.1694992728028 17.1694992728028 0 0 0 49.9128194473301 13.9133180968211V-1.3041346353626L75.4436733845834 5.9189694577187V14.7377519218783A18.0843548722211 18.0843548722211 0 0 0 71.5342613754415 13.8388531061708zM86.8474548098899 31.0455848742988C88.2091003532101 34.9975483066694 88.6399335134012 38.6995221275712 88.1239975067526 42.0504467068357C87.6825264907542 44.8960731352587 86.5283191356742 47.9012674007895 84.4379804695616 51.448992312487A117.0589653023062 117.0589653023062 0 0 1 77.3052981508415 61.8740910035321C75.2734676916684 64.6239767296904 73.1724911697486 67.4642842302099 71.3002285476834 70.4162892167048C67.4652815291918 76.5064616663204 65.2260128817785 82.2934552254311 64.6781633077083 87.7028049033867C61.6889258258882 82.3094120091419 58.5560772906711 76.8734676916684 55.0349470184916 71.7460211926034C53.6998961146894 69.8046125077914 52.2903802202369 67.868522750883 50.9287346769167 66.0015790567214C47.8277997091211 61.7464367338458 44.6258051111573 57.363640141284 42.2110118429254 52.6617078745066A37.8282152503636 37.8282152503636 0 0 1 38.780303345107 43.1833783503013A23.7383752337419 23.7383752337419 0 0 1 39.1100768751299 31.2849366299605C39.2962393517557 30.6785788489508 43.4609599002701 17.5780594223977 54.0030750051943 15.3281529191772C47.5724911697486 24.2160814460835 50.4872636609184 33.8007895283607 53.2158736754623 37.364471223769L55.6040723041762 40.4813629752753V36.5559941824226C55.6040723041762 32.0402243922709 56.8433825057137 31.3168501973821 58.0507791398296 31.2051527114066A1.2871805526699 1.2871805526699 0 0 1 59.2954082692707 31.7849158528984A4.4944940785373 4.4944940785373 0 0 1 59.6517764388116 34.045460211926A37.6899231248701 37.6899231248701 0 0 1 58.7741533347185 40.1356326615417A36.0304176189487 36.0304176189487 0 0 0 57.8433409515894 47.4066071057553A19.0045293995429 19.0045293995429 0 0 0 62.26868896738 59.3795138167463L65.6834406814876 63.4218990234781L64.57710367754 58.2359443174735C63.4654477456888 53.0021192603366 65.0451693330563 47.0661957199252 69.4066902140038 40.0186162476626Q70.1141076251818 38.885684604197 70.8428007479742 37.7687097444421A51.0244753791814 51.0244753791814 0 0 0 74.8639102430916 30.7690006233119C76.0979015167255 27.9659256181176 77.3106170787451 23.7480157905672 76.0500311655932 19.567338458342A10.6378558071889 10.6378558071889 0 0 0 75.1351755661749 17.4397672969042A16.2120922501558 16.2120922501558 0 0 1 78.7307708290048 19.3864949096198C83.2359027633493 22.6310409308124 85.6347392478703 27.5191356742157 86.8474548098899 31.0455848742988zM63.9973405360482 104A64.0026594639518 64.0026594639518 0 1 1 128 40.0186162476626A63.9973405360482 63.9973405360482 0 0 1 63.9973405360482 104zM106.2934552254311 -3.0646997714523A1.3350509038022 1.3350509038022 0 0 0 105.7615624350717 -4.1284853521712A1.3084562642842 1.3084562642842 0 0 0 104.9584043216289 -4.3997506752545A1.377602327031 1.377602327031 0 0 0 104.5967172241845 -4.3518803241221L76.773405360482 3.5307708290048L48.944774568876 -4.3465613962186A1.377602327031 1.377602327031 0 0 0 48.5830874714315 -4.3944317473509L48.4501142738417 -4.3944317473509L48.3171410762518 -4.3944317473509A1.377602327031 1.377602327031 0 0 0 47.9554539788074 -4.3465613962186L19.7651360897569 3.6318304591731A1.3350509038022 1.3350509038022 0 0 0 18.7970912113027 4.9136920839393V63.4218990234781A1.3297319758986 1.3297319758986 0 0 0 19.3289840016622 64.485684604197A1.3456887596094 1.3456887596094 0 0 0 20.5310617078745 64.6665281529192L41.8067733222522 57.4327862040308C43.93434448369 60.9645543320175 46.3704134635363 64.2995221275712 48.721379596925 67.5387492208602C50.072387284438 69.389736131311 51.4712653230833 71.304550176605 52.7850405152711 73.219364221899C57.2210263868689 79.6871805526699 61.0666112611677 86.7134843133181 64.7898607936838 93.5057552462082L68.0344068148764 99.4257220029088L67.279119052566 92.7132349885726C66.5717016413879 86.4634947018492 68.6620403075005 79.4159152295866 73.4863079160607 71.8151672553501C75.2202784126324 69.0865572408062 77.1723249532516 66.4217743611054 79.081820070642 63.8367753999585L79.135009349678 63.9857053812591L105.3892374818201 55.10841471016A1.3350509038022 1.3350509038022 0 0 0 106.2934552254311 53.8478287970081zM86.7357573239144 52.7840432162892C88.9856638271348 48.9225015582797 90.2622065239975 45.6354041138583 90.7515478911282 42.4493662996052C91.33131103262 38.6676085601496 90.8685643050073 34.5401205069603 89.36330770829 30.1732806981093C88.0229378765842 26.2798254726782 85.3581549968834 20.8704757947226 80.2838977768544 17.2270101807604A19.0151672553501 19.0151672553501 0 0 0 78.1031373363806 15.8866403490546V5.9136505298151L103.6339912736339 -1.3094535632662V52.8957407022647L81.730646166632 60.3422397672969C83.4858923748182 57.9061707874507 85.2145439434864 55.4009557448577 86.7357573239144 52.7840432162892zM36.5676293372117 30.4977353002286A26.387201329732 26.387201329732 0 0 0 36.1793476002493 43.7418657801787A40.2961977976314 40.2961977976314 0 0 0 39.8440889258259 53.8478287970081C40.0568460419697 54.2573862455849 40.2802410139206 54.6616247662581 40.5036359858716 55.0711822148348L21.4565551630999 61.5655931851236V5.9189694577187L46.9874091003532 -1.3041346353626V15.5515478911282C41.4025348015791 19.4609599002701 37.9505505921463 26.0085601495949 36.5676293372117 30.4977353002286z" />
    <glyph glyph-name="info"
      unicode="&#xE01A;"
      horiz-adv-x="128" d="M64 92C50.2 92 37 86.6 27.2 76.8S12 53.8 12 40S17.4 13 27.2 3.2S50.2 -12 64 -12S91 -6.6 100.8 3.2S116 26.2 116 40S110.6 67 100.8 76.8S77.8 92 64 92zM64 104L64 104C99.4 104 128 75.4 128 40S99.4 -24 64 -24S0 4.6 0 40S28.6 104 64 104zM59.6 7.8C56.2 7.8 53.6 9.8 56 19L60 35.2C60.6 37.8 60.8 38.8 60 38.8C59 38.8 54.4 37 51.8 35.2L50 38.2C58.4 45.2 68 49.2 72.2 49.2C75.6 49.2 76.2 45.2 74.4 38.8L70 21.8C69.2 18.8 69.6 17.8 70.4 17.8C71.4 17.8 74.8 19 78.2 21.6L80.2 19C71.8 11 63 7.8 59.6 7.8L59.6 7.8zM72.4 71.8C77.4 71.8 79 68.8 79 65.6C79 61.4 75.6 57.6 70 57.6C65.2 57.6 63 60 63 64C63 67.2 65.8 71.8 72.4 71.8L72.4 71.8z" />
    <glyph glyph-name="instagram"
      unicode="&#xE01B;"
      horiz-adv-x="128" d="M80.92 69.3333333333333H46.0133333333333A11.7466666666667 11.7466666666667 0 0 1 34.28 57.6V22.6666666666667A11.7466666666667 11.7466666666667 0 0 1 46.0133333333333 10.9333333333333H80.92A11.7466666666667 11.7466666666667 0 0 1 92.6533333333333 22.6666666666667V57.56A11.7466666666667 11.7466666666667 0 0 1 80.92 69.3333333333333zM63.4533333333333 18.7733333333333A21.3333333333333 21.3333333333333 0 1 0 84.7866666666667 40.1066666666667A21.3333333333333 21.3333333333333 0 0 0 63.4533333333333 18.7733333333333zM84.4 57.44A3.44 3.44 0 1 0 87.84 60.88A3.4266666666667 3.4266666666667 0 0 0 84.4 57.4933333333333zM63.4533333333333 57.0533333333333A16.92 16.92 0 1 1 80.3733333333333 40.12A16.9333333333333 16.9333333333333 0 0 1 63.4533333333333 57.0533333333333zM64 104A64 64 0 1 1 128 40A64 64 0 0 1 64 104zM96.5733333333333 22.6666666666667A15.6933333333333 15.6933333333333 0 0 0 80.92 7H46.0133333333333A15.7066666666667 15.7066666666667 0 0 0 30.36 22.6666666666667V57.56A15.6933333333333 15.6933333333333 0 0 0 46.0133333333333 73.2133333333333H80.92A15.6666666666667 15.6666666666667 0 0 0 96.5733333333333 57.56z" />
    <glyph glyph-name="instagram_inverted"
      unicode="&#xE01C;"
      horiz-adv-x="128" d="M80.92 69.3333333333333H46.0133333333333A11.7466666666667 11.7466666666667 0 0 1 34.28 57.6V22.6666666666667A11.7466666666667 11.7466666666667 0 0 1 46.0133333333333 10.9333333333333H80.92A11.7466666666667 11.7466666666667 0 0 1 92.6533333333333 22.6666666666667V57.56A11.7466666666667 11.7466666666667 0 0 1 80.92 69.3333333333333zM63.4533333333333 18.7733333333333A21.3333333333333 21.3333333333333 0 1 0 84.7866666666667 40.1066666666667A21.3333333333333 21.3333333333333 0 0 0 63.4533333333333 18.7733333333333zM84.4 57.44A3.44 3.44 0 1 0 87.84 60.88A3.4266666666667 3.4266666666667 0 0 0 84.4 57.4933333333333zM63.4533333333333 57.0533333333333A16.92 16.92 0 1 1 80.3733333333333 40.12A16.9333333333333 16.9333333333333 0 0 1 63.4533333333333 57.0533333333333zM64 104A64 64 0 1 1 128 40A64 64 0 0 1 64 104zM96.5733333333333 22.6666666666667A15.6933333333333 15.6933333333333 0 0 0 80.92 7H46.0133333333333A15.7066666666667 15.7066666666667 0 0 0 30.36 22.6666666666667V57.56A15.6933333333333 15.6933333333333 0 0 0 46.0133333333333 73.2133333333333H80.92A15.6666666666667 15.6666666666667 0 0 0 96.5733333333333 57.56z" />
    <glyph glyph-name="lamp"
      unicode="&#xE01D;"
      horiz-adv-x="128" d="M64 92C50.2 92 37 86.6 27.2 76.8S12 53.8 12 40S17.4 13 27.2 3.2S50.2 -12 64 -12S91 -6.6 100.8 3.2S116 26.2 116 40S110.6 67 100.8 76.8S77.8 92 64 92zM64 104L64 104C99.4 104 128 75.4 128 40S99.4 -24 64 -24S0 4.6 0 40S28.6 104 64 104zM64 72C51.8 72 42 62.2 42 50C42 42 49.4 33.4 52 25.8C56 14.6 55.6 8 64 8C72.4 8 72 14.6 76 25.8C78.6 33.4 86 42 86 50C86 62.2 76.2 72 64 72zM69.2 17.6L59.2 16.4C58.8 17.4 58.4 18.6 58 20.2C58 20.2 58 20.2 58 20.2L70.4 21.8C70.2 21.2 70 20.6 70 20C69.6 19.2 69.4 18.4 69.2 17.6zM57.4 22.2C57 23.4 56.6 24.6 56.2 26H71.8C71.6 25.2 71.4 24.6 71 23.8C71 23.8 57.4 22.2 57.4 22.2zM64 12C62 12 61 12.2 60 14.4L68.4 15.4C67.2 12.2 66.4 12 64 12zM73.4 30H54.8C53.8 32.2 52.6 34.4 51.4 36.4C48.6 41.2 46 46 46 50C46 60 54 68 64 68S82 60 82 50C82 46 79.4 41.2 76.6 36.4C75.6 34.4 74.4 32.2 73.4 30zM64 62C64.6 62 65 61.6 65 61S64.6 60 64 60C58.4 60 54 55.6 54 50C54 49.4 53.6 49 53 49S52 49.4 52 50C52 56.6 57.4 62 64 62z" />
    <glyph glyph-name="legende_statspol"
      unicode="&#xE01E;"
      horiz-adv-x="128" d="M63.9973405360482 104A64.0026594639518 64.0026594639518 0 1 1 128 40.0186162476626A63.9973405360482 63.9973405360482 0 0 1 63.9973405360482 104zM102.0383129025556 6.5997922293788A5.4146686058591 5.4146686058591 0 0 0 96.6289632246 1.1904425514232H30.3232079783919A5.4146686058591 5.4146686058591 0 0 0 24.9138583004363 6.5997922293788V72.905547475587A5.4146686058591 5.4146686058591 0 0 0 30.3232079783919 78.3148971535425H96.6289632246A5.4146686058591 5.4146686058591 0 0 0 102.0383129025556 72.905547475587zM96.6289632246 75.6554332017453H30.3232079783919A2.7552046540619 2.7552046540619 0 0 1 27.5733222522335 72.905547475587V6.5997922293788A2.7552046540619 2.7552046540619 0 0 1 30.3232079783919 3.8499065032205H96.6289632246A2.7552046540619 2.7552046540619 0 0 1 99.3788489507584 6.5997922293788V72.905547475587A2.7552046540619 2.7552046540619 0 0 1 96.6289632246 75.6554332017453zM90.6026179098275 16.6153334718471H36.3495532931644A1.3297319758986 1.3297319758986 0 0 0 36.3495532931644 19.2747974236443H90.6026179098275A1.3297319758986 1.3297319758986 0 0 0 90.6026179098275 16.6153334718471zM90.6026179098275 37.3591522958654H36.3495532931644A1.3297319758986 1.3297319758986 0 0 0 36.3495532931644 40.0186162476626H90.6026179098275A1.3297319758986 1.3297319758986 0 0 0 90.6026179098275 37.3591522958654zM90.6026179098275 58.1029711198837H36.3495532931644A1.3297319758986 1.3297319758986 0 0 0 36.3495532931644 60.7624350716809H90.6026179098275A1.3297319758986 1.3297319758986 0 0 0 90.6026179098275 58.1029711198837z" />
    <glyph glyph-name="level_back_statspol"
      unicode="&#xE01F;"
      horiz-adv-x="128" d="M64.0026594639518 104A64.0026594639518 64.0026594639518 0 1 1 128.0053189279036 40.0186162476626A64.0026594639518 64.0026594639518 0 0 1 64.0026594639518 104zM101.2936629960524 5.0679409931436A1.3297319758986 1.3297319758986 0 1 0 98.6341990442551 5.0679409931436V48.9863286931228A2.2073550799917 2.2073550799917 0 0 1 96.432162892167 51.1883648452109H22.2012050696032L45.8597963847912 26.1628090587991A1.3350509038022 1.3350509038022 0 0 0 45.8066071057553 24.2799085809267A1.3137751921878 1.3137751921878 0 0 0 44.891751506337 23.9182214834822A1.3403698317058 1.3403698317058 0 0 0 43.9237066278828 24.3330978599626L17.009931435695 52.7840432162892L46.7055059214627 80.878620403075A1.3297319758986 1.3297319758986 0 0 0 48.5352171202992 78.9425306461666L21.9831290255558 53.8478287970081H96.4481196758778A4.8668190317889 4.8668190317889 0 0 0 101.3096197797631 48.9863286931228z" />
    <glyph glyph-name="line_chart_statspol"
      unicode="&#xE020;"
      horiz-adv-x="128" d="M64.0026594639518 104A64.0026594639518 64.0026594639518 0 1 1 128.0053189279036 40.0186162476626A64.0026594639518 64.0026594639518 0 0 1 64.0026594639518 104zM38.2643673384583 19.8066902140038A4.1168501973821 4.1168501973821 0 0 0 38.8388115520465 19.7588198628714L46.8650737585705 36.183669229171A3.9891959276958 3.9891959276958 0 1 0 53.9552046540619 38.688884271764A3.9253687928527 3.9253687928527 0 0 0 53.7211718263038 37.3591522958654L60.577269894037 31.6944940785373A3.9200498649491 3.9200498649491 0 0 0 62.1357157697902 32.0349054643673L70.7045086224808 47.9916891751506A3.9891959276958 3.9891959276958 0 1 0 77.6882609599003 49.1299397465198L84.3688344068149 43.842925410347A3.9945148555994 3.9945148555994 0 0 0 86.1347184708082 44.2578017868273A3.7232495325161 3.7232495325161 0 0 0 86.7836276750468 44.1992935798878L94.8524413047995 59.9699148140453A3.9838769997922 3.9838769997922 0 1 0 97.836359858716 58.6348639102431A3.8509038022024 3.8509038022024 0 0 0 97.1768127986703 58.6933721171826L89.1133180968211 42.9333887388323A3.9891959276958 3.9891959276958 0 1 0 82.5072096405568 41.9387492208602L76.0606690214004 47.0396010804072A3.9466445044671 3.9466445044671 0 0 0 73.901184292541 46.4013297319759A4.2072719717432 4.2072719717432 0 0 0 72.9278204861832 46.5236650737586L64.6888011635155 31.1679202160814A3.9945148555994 3.9945148555994 0 1 0 58.6411801371286 29.8435071680864L52.0457095366715 35.2900893413671A3.9519634323707 3.9519634323707 0 0 0 49.9660087263661 34.6996883440682A4.2072719717432 4.2072719717432 0 0 0 49.141574901309 34.7847911905257L41.1897776854353 18.5195096613339A3.9838769997922 3.9838769997922 0 1 0 38.2643673384583 19.8066902140038zM103.1552877623104 3.318013712861H25.7648867650114V79.1127363390817A1.3297319758986 1.3297319758986 0 0 0 28.4243507168086 79.1127363390817V5.9774776646582H103.1552877623104A1.3297319758986 1.3297319758986 0 0 0 103.1552877623104 3.318013712861z" />
    <glyph glyph-name="linkedin"
      unicode="&#xE021;"
      horiz-adv-x="128" d="M64 104C99.3225 104 128 75.3225 128 40C128 4.6775 99.3225 -24 64 -24C28.6775 -24 0 4.6775 0 40C0 75.3225 28.6775 104 64 104zM43.99075 4.03225L43.99075 54.0125L27.37475 54.0125L27.37475 4.03225L43.99075 4.03225zM103.89575 4.03225L103.89575 32.69375C103.89575 48.046 95.699 55.18775 84.7685 55.18775C75.95475 55.18775 72.00675 50.3405 69.79625 46.936L69.79625 54.0125L53.1845 54.0125C53.40475 49.32325 53.1845 4.03225 53.1845 4.03225L69.796 4.03225L69.796 31.94475C69.796 33.43875 69.9035 34.93225 70.34375 36C71.5425 38.98375 74.278 42.07475 78.8675 42.07475C84.876 42.07475 87.28325 37.48975 87.28325 30.77375L87.28325 4.03225L103.89575 4.03225zM35.795 78.1125C30.11 78.1125 26.39575 74.375 26.39575 69.47625C26.39575 64.68075 29.997 60.84025 35.575 60.84025L35.68225 60.84025C41.476 60.84025 45.08225 64.68075 45.08225 69.47625C44.97475 74.375 41.47625 78.1125 35.795 78.1125z" />
    <glyph glyph-name="linkedin_inverted"
      unicode="&#xE022;"
      horiz-adv-x="128" d="M64 104C99.3225 104 128 75.3225 128 40C128 4.6775 99.3225 -24 64 -24C28.6775 -24 0 4.6775 0 40C0 75.3225 28.6775 104 64 104zM43.99075 4.03225L43.99075 54.0125L27.37475 54.0125L27.37475 4.03225L43.99075 4.03225zM103.89575 4.03225L103.89575 32.69375C103.89575 48.046 95.699 55.18775 84.7685 55.18775C75.95475 55.18775 72.00675 50.3405 69.79625 46.936L69.79625 54.0125L53.1845 54.0125C53.40475 49.32325 53.1845 4.03225 53.1845 4.03225L69.796 4.03225L69.796 31.94475C69.796 33.43875 69.9035 34.93225 70.34375 36C71.5425 38.98375 74.278 42.07475 78.8675 42.07475C84.876 42.07475 87.28325 37.48975 87.28325 30.77375L87.28325 4.03225L103.89575 4.03225zM35.795 78.1125C30.11 78.1125 26.39575 74.375 26.39575 69.47625C26.39575 64.68075 29.997 60.84025 35.575 60.84025L35.68225 60.84025C41.476 60.84025 45.08225 64.68075 45.08225 69.47625C44.97475 74.375 41.47625 78.1125 35.795 78.1125z" />
    <glyph glyph-name="location"
      unicode="&#xE023;"
      horiz-adv-x="128" d="M64.0128 62.8224C51.4176 62.8224 41.2032 52.608 41.2032 40.0128C41.2032 27.4176 51.4176 17.2032 64.0128 17.2032C76.608 17.2032 86.8224 27.4176 86.8224 40.0128C86.8224 52.608 76.608 62.8224 64.0128 62.8224zM114.9696 45.7088C112.3456 69.4784 93.4656 88.3456 69.696 90.9824V102.72H58.2912V90.9696C34.5216 88.3456 15.6544 69.4656 13.0176 45.696H1.28V34.2912H13.0304C15.6544 10.5216 34.5344 -8.3456 58.304 -10.9824V-22.72H69.7088V-10.9696C93.4784 -8.3456 112.3456 10.5344 114.9824 34.304H126.72V45.7088H114.9696zM64.0128 0.0896C41.9712 0.0896 24.1024 17.9712 24.1024 40C24.1024 62.0416 41.984 79.9104 64.0128 79.9104C86.0544 79.9104 103.9232 62.0288 103.9232 40C103.9232 17.9712 86.0416 0.0896 64.0128 0.0896z" />
    <glyph glyph-name="map_belgium_statspol"
      unicode="&#xE024;"
      horiz-adv-x="128" d="M64.0026594639518 104A64.0026594639518 64.0026594639518 0 1 1 128.0053189279036 40.0186162476626A64.0026594639518 64.0026594639518 0 0 1 64.0026594639518 104zM117.4632038229794 29.535009349678V28.6041969665489L116.59089964679 28.2850612923333C113.2240182838147 27.056388946603 111.7347184708082 23.9820486183254 111.0804903386661 21.6204446291295L110.5166839808851 19.5832952420528L108.9210056098068 20.9768543527945A2.4945771867858 2.4945771867858 0 0 1 106.793434448369 21.6204446291295A4.026428423021 4.026428423021 0 0 1 104.1339704965718 19.397132765427A75.2681487637648 75.2681487637648 0 0 1 100.4692291709952 11.9187201329732C99.4799085809267 9.4400997298982 100.4692291709952 7.3710367754 102.596800332433 4.6371078329524C104.341408684812 2.3552877623104 104.8254311240391 -1.6339081653854 102.7723249532516 -3.9316850197382C102.1340536048203 -4.6391024309163 101.2085601495949 -4.7188863494702 100.4585913151881 -4.7827134843133A4.223228755454 4.223228755454 0 0 1 99.7990442551424 -4.8624974028672Q96.9534178267193 -5.5114066071058 94.1024724703927 -6.1762725950551L90.8738832329109 -6.9262414294619L90.4643257843341 -5.8252233534178C90.3207147309371 -5.4369416164554 90.203698317058 -5.0433409515895 90.0920008310825 -4.6603781425306A6.7816330770829 6.7816330770829 0 0 1 89.272885933929 -2.6604612507791A5.3721171826304 5.3721171826304 0 0 1 87.7410346976938 -1.5700810305423C87.3421151049242 -1.3413671306877 86.8953251610223 -1.0860585913152 86.4378973613132 -0.7828797008103L85.7783503012674 -0.3467276127156L85.8474963640142 0.4404737170164C85.8900477872429 0.9404529399543 85.7996260128818 1.1638479119053 85.7464367338459 1.2170371909412S85.3262414294619 1.3925618117598 84.5922293787659 1.2808643257843C83.2731352586745 1.0734261375441 82.0285061292334 2.2169956368169 81.6774568875961 2.5733638063578C78.8052358196551 5.4668605859131 78.8052358196551 5.4721795138167 74.8798670268025 5.40303345107L73.5288593392895 5.40303345107V8.0146270517349Q73.5288593392895 9.6103054228132 73.5288593392895 11.2644920008311C73.5288593392895 11.4559734053605 73.5288593392895 11.6740494494078 73.5660918346146 11.8974444213588C73.5660918346146 11.934676916684 73.5660918346146 11.9719094120091 73.5660918346146 12.0144608352379C70.7949303968419 14.1420319966757 72.0076459588615 16.6259713276543 72.7469769374611 18.1312279243715A4.8668190317889 4.8668190317889 0 0 1 73.3799293579888 19.8758362767505C73.3799293579888 20.2056098067733 73.4065239975068 20.5300644088926 73.4384375649284 20.8492000831082A1.718013712861 1.718013712861 0 0 1 73.0661126116768 20.7428215250364A8.5102846457511 8.5102846457511 0 0 1 71.9650945356327 18.7216289216705A17.0684396426345 17.0684396426345 0 0 0 71.16193642219 17.0514855599418A10.5899854560565 10.5899854560565 0 0 0 69.1247870351133 14.4239351755662C66.124911697486 11.737876584251 62.8165385414503 12.2644504467068 59.896447122377 12.7325161022231A20.8821109495117 20.8821109495117 0 0 1 56.7050903802203 13.0782464159568H56.7050903802203A2.8296696447122 2.8296696447122 0 0 0 54.0881778516518 14.7324329939747A3.7870766673592 3.7870766673592 0 0 0 54.6945356326616 18.6950342821525C55.5189694577187 19.6790359443175 55.4710991065864 19.9822148348224 55.4710991065864 19.987533762726S55.3913151880325 20.3332640764596 54.0828589237482 21.0513193434448L53.0509869104509 21.6257635570331L54.9923955952629 26.3755661749429C54.8913359650946 26.4553500934968 54.7902763349263 26.5351340120507 54.6945356326616 26.6202368585082C53.928610014544 27.2425514232288 53.2052358196552 27.8329524205278 52.5031373363807 28.4765426968627C51.2425514232288 29.6201121961355 50.9074589653024 29.731809682111 50.1947226262207 29.2584250986911A2.7126532308332 2.7126532308332 0 0 0 47.5033451070019 29.2584250986911C46.0938292125494 30.1679617702057 45.0406814876377 30.2743403282776 43.5354248909205 28.2584666528153L41.4078537294827 25.3862455848743L41.1472262622066 29.2531061707875C40.8546852275089 33.6465406191565 40.4823602742573 36.2049449407854 36.3601911489716 36.8325784334096C34.7645127778933 36.1570745896531 33.4507375857055 35.8485767712446 32.2699355911075 36.407064201122C30.8870143361729 37.0612923332641 30.243424059838 38.6037814253065 29.5360066486599 41.194099314357A10.4676501142738 10.4676501142738 0 0 0 29.259422397673 43.6939954290464C29.2168709744443 45.2896738001247 29.142405983794 46.2523997506753 28.1211718263038 46.9810928734677A6.138042800748 6.138042800748 0 0 0 26.6744234365261 48.6778308747144L26.4988988157075 48.9384583419905A20.6906295449823 20.6906295449823 0 0 1 23.0947849574071 47.4278828173697L22.5628921670476 47.1566174942863C22.4937461043009 47.0661957199252 22.387367546229 46.885352171203 22.2916268439643 46.7311032619988C22.1320590068565 46.4598379389155 21.9246208186163 46.124745480989 21.6480365676294 45.7258258882194L20.8076459588615 44.5290671099107L19.6959900270102 45.4758362767505C19.2917515063371 45.8162476625805 18.9034697693747 46.1566590484106 18.5205069603159 46.4864325784334C17.6694784957408 47.2204446291295 16.866320382298 47.9119052565968 16.0418865572409 48.5714523166425A11.06868896738 11.06868896738 0 0 1 14.978100976522 49.2735507999169A6.7869520049865 6.7869520049865 0 0 0 12.6164969873261 51.331975898608A12.4356534386038 12.4356534386038 0 0 0 11.2548514440059 55.4115936006649C11.1963432370663 55.6881778516518 11.1378350301268 55.9434863910243 11.0793268231873 56.2413463536256A8.8400581757739 8.8400581757739 0 0 0 10.9038022023687 57.8902140037399A6.2922917099522 6.2922917099522 0 0 1 10.7708290047788 59.1561188447954A18.2439227093289 18.2439227093289 0 0 1 9.8825680448785 61.4751714107626C9.7230002077707 61.836858508207 9.5634323706629 62.203864533555 9.4145023893622 62.570870558903L9.2762102638687 62.7836276750468V64.8473717016414L9.9091626843964 65.2356534386038L14.0632453771037 67.7993766881363C17.3450238936214 69.8046125077914 20.7278620403075 71.9321836692292 24.0947434032828 73.9108248493663C25.9191356742157 74.9746104300852 27.8179929357989 76.0064824433825 29.8285476833576 77.102181591523C30.8072304176189 77.6340743818824 31.8231456472055 78.1659671722419 32.9028880116352 78.7457303137337L34.8655724080615 79.8095158944525V77.5755661749429C34.8655724080615 76.8202784126325 34.8655724080615 76.1660502804903 34.8123831290256 75.5862871389985A8.9304799501351 8.9304799501351 0 0 1 34.9028049033867 73.1236235196343A2.5690421774361 2.5690421774361 0 0 1 36.0836068979846 71.7619779763141A1.3403698317058 1.3403698317058 0 0 1 36.4186993559111 71.6502804903387A1.2393102015375 1.2393102015375 0 0 1 36.4612507791398 71.8896322460004C36.5782671930189 73.1183045917307 38.0569291502182 73.6555163099938 38.6686058591315 73.8310409308124C41.3918969457719 74.5863286931228 44.8492000831083 73.1927695823811 46.5406191564513 70.6396841886557A1.1382505713692 1.1382505713692 0 0 1 47.0405983793892 70.3365052981509A12.589902347808 12.589902347808 0 0 1 55.8806565551631 75.2990650322045A3.7923955952628 3.7923955952628 0 0 1 56.0827758154997 75.9745688759609C56.1519218782464 76.2564720548514 56.2317057968003 76.5702888011635 56.3380843548722 76.9107001869936L57.3167670891336 79.9637648036568L58.3433201745273 77.9691668398089L60.9495948472886 77.5596093912321C60.6676916683981 81.2083939330979 61.3272387284438 81.9424059837939 65.3164346561396 82.8253480157906L66.6727612715562 83.1232079783919L67.1621026386869 80.3573654685228C67.9918553916476 80.1871597756077 68.7152295865365 80.485019738209 69.7098691045086 81.7668813629753C70.3321836692292 82.570039476418 71.305547475587 82.8306669436942 72.1353002285477 83.0327862040307C72.4225223353418 83.1072511946811 72.6671930189071 83.1763972574278 72.9012258466653 83.2561811759817L74.4969042177436 83.8519011011843L75.0287970081031 79.6924994805735C75.8000415541242 79.4956991481405 76.2308747143154 79.4318720132973 76.4542696862664 79.55420735508C76.9542489092042 79.8254726781633 77.757407022647 81.0062746727613 78.9754415125701 82.7881155204654L80.7891959276958 85.4475794722626L81.4593808435487 81.8679409931436C82.1880739663412 77.783004363183 82.7837938915437 74.5916476210264 86.1719509661334 73.0438396010804C86.8900062331186 73.0810720964056 88.9058799085809 73.3470184915853 90.1558279659256 73.5172241845003L91.4536463744027 73.6874298774153A4.2551423228755 4.2551423228755 0 0 0 94.2354456679825 72.7140660710576A1.8722626220652 1.8722626220652 0 0 0 94.9747766465822 71.3736962393518C95.0226469977145 70.4322460004156 95.4534801579057 70.176937461043 96.7778932059007 69.6290878869728C97.0544774568876 69.5173904009973 97.3097859962601 69.4056929150218 97.5757323914398 69.2833575732392A17.1216289216705 17.1216289216705 0 0 1 100.7085809266569 68.288718055267C101.2989819239559 68.1397880739663 101.9159775607729 67.9855391647621 102.5595678371078 67.7993766881363L103.8892998130064 67.4110949511739L103.4531477249117 66.0813629752753C103.1978391855392 65.3207562850613 102.9212549345523 64.5867442343653 102.6553085393725 63.8793268231872A21.9884479534594 21.9884479534594 0 0 1 101.3255765634739 59.4858923748182A8.5102846457511 8.5102846457511 0 0 0 97.9746519842094 53.5446499065032A1.0637855807189 1.0637855807189 0 0 1 97.6076459588614 53.1457303137336S97.6448784541866 52.9170164138791 98.1395387492209 52.4915021815915A6.1327238728444 6.1327238728444 0 0 0 99.3522543112404 50.7894452524413L99.3522543112404 50.7628506129233C102.543611053397 50.7256181175982 106.3360066486599 50.544774568876 109.7188447953459 48.5289008934137A4.3774776646582 4.3774776646582 0 0 0 111.1283606897985 46.9332225223353A5.3667982547268 5.3667982547268 0 0 1 111.5113234988573 46.3587783087471C112.0432162892167 45.7151880324122 112.5751090795762 45.0875545397881 113.1548722210679 44.3960939123208C113.4314564720549 44.0769582381051 113.7133596509454 43.7418657801787 114.0112196135467 43.3908165385414L114.6335341782672 42.6568044878454L114.0059006856431 41.6355703303553C113.8250571369208 41.3270725119468 113.5112403906088 40.8058175773946 113.1814668605859 40.2952004986495A3.1913567421567 3.1913567421567 0 0 1 112.564471223769 38.9335549553293A2.7392478703511 2.7392478703511 0 0 1 113.7825057136921 38.6144192811137C116.7504674838978 38.26868896738 117.2132142115105 35.646457510908 117.3834199044255 34.6571369208394A17.1907749844172 17.1907749844172 0 0 0 117.5057552462082 31.0402659463952C117.4844795345938 30.5615624350717 117.4632038229794 30.045626428423 117.4632038229794 29.5190525659672zM113.4740078952836 35.9975067525452C112.8250986910451 36.0719717431955 110.8624142946188 36.3006856430501 110.1443590276335 37.8165800955745C109.4848119675878 39.2101392063162 110.282651153127 40.7366715146478 110.9421982131727 41.7632246000416C111.0858092665697 41.9866195719925 111.2294203199668 42.2153334718471 111.357074589653 42.4280905879909L111.1283606897985 42.6993559110742C110.5220029087887 43.4067733222522 109.9741533347185 44.0503635985872 109.442260544359 44.7099106586329A7.0582173280698 7.0582173280698 0 0 0 108.8571784749637 45.5715769790152A3.2870974444214 3.2870974444214 0 0 1 108.3518803241222 46.268356534386C105.3147724911698 48.0714730937046 101.7244961562435 48.1033866611261 98.5597340536048 48.1353002285477H97.836359858716L97.4480781217536 48.7469769374611C97.2885102846457 49.0076044047372 97.1395803033451 49.2788697278205 96.9959692499481 49.5288593392894A4.1062123415749 4.1062123415749 0 0 1 96.341741117806 50.5288177851652C95.384334095159 51.3904841055475 94.9162684396426 52.3106586328693 94.9535009349678 53.2627467276127A3.1913567421567 3.1913567421567 0 0 0 96.341741117806 55.6615832121338A5.9306046125078 5.9306046125078 0 0 1 98.6980261790983 59.9167255350094A23.9670891335965 23.9670891335965 0 0 0 100.1660502804903 64.8633284853522C100.2617909827551 65.1133180968211 100.3575316850198 65.3952212757116 100.4532723872844 65.6345730313734L100.0543527945149 65.7356326615417A18.9779347600249 18.9779347600249 0 0 0 96.432162892167 66.9057968003324C96.2194057760233 67.0068564305007 95.9960108040723 67.0972782048619 95.7672969042178 67.1930189071265C94.5226677747767 67.724911697486 92.682318720133 68.4642426760856 92.3631830459173 70.8098898815708A2.1754415125701 2.1754415125701 0 0 1 91.7461874091004 71.0651984209433L90.5068772075628 70.9003116559319C86.2517348846873 70.3311863702473 85.4007064201122 70.2194888842718 84.9007271971743 70.7247870351133C81.3370455017661 72.4215250363599 80.1136920839393 75.5118221483482 79.3424475379182 78.7829628090588C77.6084770413464 76.5968834406815 76.5978807396634 76.5170995221276 73.4437564928319 77.3787658425099L72.5714523166424 77.5915229586537L72.2257220029088 80.3094951173904A1.7392894244754 1.7392894244754 0 0 1 71.7736131311033 80.118013712861C70.6300436318305 78.6340328277582 68.6992728028257 76.7883648452109 65.4706835653439 78.1127778932059L64.7898607936838 78.3893621441928L64.5398711822148 79.9105755246208A2.6594639517972 2.6594639517972 0 0 1 63.5984209432786 79.5595262829836C63.4175773945564 79.2723041761895 63.5984209432786 77.6713068772076 63.7579887803865 76.1234988572616L63.9494701849159 74.3948472885934L59.7741117805942 75.0543943486391A1.9786411801371 1.9786411801371 0 0 0 58.885850820694 74.6288801163516A2.2658632869312 2.2658632869312 0 0 0 58.4603365884064 74.5863286931228H58.4603365884064A3.0371078329524 3.0371078329524 0 0 0 57.9869520049865 73.6767920216082A15.1908580926657 15.1908580926657 0 0 0 47.2746312071473 67.7089549137752A3.5211302721795 3.5211302721795 0 0 0 44.327945148556 69.1450654477457C43.2641595678371 70.7088302514025 40.9770205692915 71.6875129856638 39.3813421982132 71.2407230417619A2.5158528984002 2.5158528984002 0 0 1 39.0302929565759 71.107749844172A2.6169125285685 2.6169125285685 0 0 0 37.7697070434241 69.272719717432A3.0371078329524 3.0371078329524 0 0 0 34.9293995429046 69.3312279243715A5.2231872013297 5.2231872013297 0 0 0 32.328443798047 72.4108871805527A9.6219405776023 9.6219405776023 0 0 0 32.1476002493247 75.2884271763973L31.0838146686059 74.7246208186163C29.0147517141076 73.6236027425722 27.2275919384999 72.6768335757324 25.456388946603 71.6236858508207C22.1054643673385 69.6344068148764 18.7332640764596 67.5493870766674 15.4674423436526 65.5494701849159L11.9356742156659 63.358071888635V63.304882609599L12.2760856014959 62.5070434240598A19.4087679202161 19.4087679202161 0 0 0 13.2920008310825 59.8475794722626A8.1751921878246 8.1751921878246 0 0 0 13.5153958030335 57.9859547060046A7.5475586952005 7.5475586952005 0 0 1 13.6270932890089 56.8104716393102C13.6962393517557 56.5232495325161 13.7547475586952 56.2307084978184 13.8185746935383 55.9381674631207A10.1963847911905 10.1963847911905 0 0 1 14.8398088510285 52.7095782256389A4.8295865364637 4.8295865364637 0 0 1 16.3450654477457 51.5181383752337A14.0579264492001 14.0579264492001 0 0 0 17.6428838562227 50.6298774153335C18.504550176605 49.9437357157698 19.3236650737586 49.2309993766881 20.1906503220445 48.5023062538957H20.1906503220445A2.5637232495325 2.5637232495325 0 0 0 21.1906087679202 49.4809889881571L21.8022854768336 49.7948057344692A18.8875129856638 18.8875129856638 0 0 0 26.4829420319967 51.698981923956C27.6265115312695 51.9489715354249 28.2860585913152 50.9543320174527 28.812632453771 50.15117390401A5.3189279035944 5.3189279035944 0 0 1 29.5891959276958 49.1512154581342C31.7167670891336 47.6140452939954 31.7965510076875 45.4864741325577 31.8444213588199 43.7737793476003A8.4251817992936 8.4251817992936 0 0 1 32.0252649075421 41.8961977976314C32.5571576979015 40.013297319759 32.9773530022855 38.9707874506545 33.3337211718263 38.8005817577395C33.4879700810305 38.7261167670891 33.9879493039684 38.7048410554748 35.5517141076252 39.4069395387492L35.8868065655516 39.5558695200499L36.2538125908997 39.5133180968211C41.7748597548307 38.8484521088718 43.0673592354041 35.3698732599211 43.5035113234989 31.8859754830667C45.0991896945772 32.8433825057137 46.8810305422813 32.7370039476418 48.7745688759609 31.5562019530439H48.7745688759609C51.2904217743611 33.1093289008934 53.1201329731976 31.4445044670684 54.2211510492416 30.439227093289C54.8700602534802 29.84882609599 55.566839808851 29.2797008103054 56.3008518595471 28.6786619571993C56.6519011011843 28.3914398504052 57.0082692707251 28.1042177436111 57.3646374402659 27.7957199252026L58.1146062746728 27.1734053604821L56.3061707874507 22.7586952004987A3.7232495325161 3.7232495325161 0 0 0 58.0082277166009 20.4662372740495C58.2582173280698 19.1152295865365 57.4178267193019 17.8971950966133 56.6519011011843 16.9823394971951A1.1222937876584 1.1222937876584 0 0 1 56.4178682734261 15.8600457095367A0.1808435487222 0.1808435487222 0 0 1 56.6199875337627 15.7323914398504H56.6997714523166A22.7490546436734 22.7490546436734 0 0 0 60.2847288593393 15.3547475586952C62.9441928111365 14.9292333264076 65.2632453771037 14.5622273010596 67.3163515478911 16.4185331394141A7.9783918553916 7.9783918553916 0 0 1 68.8216081446084 18.386536463744A15.1695823810513 15.1695823810513 0 0 1 69.4971119883648 19.7960523581965A10.0314980261791 10.0314980261791 0 0 0 71.0608767920216 22.5353002285477C71.7682942031997 23.343777269894 72.8427176397257 23.4820693953875 73.7894868065656 23.5990858092666C74.1033035528776 23.6416372324953 74.4011635154789 23.6788697278205 74.6405152711406 23.73737793476L76.4861832536879 24.1841678786619L76.2734261375441 22.2959484728859C76.2415125701226 22.0140452939954 76.2042800747974 21.7640556825265 76.1617286515687 21.455557864118A13.4675254519011 13.4675254519011 0 0 1 76.0074797423644 19.8598794930397A6.7497195096613 6.7497195096613 0 0 0 75.1032619987534 16.9557448576771C74.2735092457926 15.2696447122377 74.1086224807812 14.7909412009142 75.4809058799086 13.8920423852067C76.3159775607729 13.3601495948473 76.2308747143154 12.3389154373571 76.1723665073759 11.6740494494078C76.1723665073759 11.5304383960108 76.1723665073759 11.3921462705173 76.1723665073759 11.2751298566383C76.1723665073759 10.2113442759194 76.1723665073759 9.1475586952005 76.1723665073759 8.0837731144816C79.7307292748805 8.0837731144816 80.4275088302514 7.5891128194473 83.5497195096613 4.4562642842302A2.478620403075 2.478620403075 0 0 1 84.2730937045502 3.9243714938708C85.6879285269063 4.1264907542073 86.7889466029504 3.8658632869312 87.5442343652608 3.1584458757532A3.1062538956991 3.1062538956991 0 0 0 88.485684604197 1.062788281737L89.0175773945564 0.7383336796177A7.0901308954914 7.0901308954914 0 0 0 91.3632246000416 -1.075420735508A8.41986287139 8.41986287139 0 0 0 92.5653023062539 -3.7933928942448L93.4535632661542 -3.5859547060046L99.1660918346146 -2.2668605859132A7.2816123000208 7.2816123000208 0 0 0 100.1926449200083 -2.1285684604197A5.1487222106794 5.1487222106794 0 0 1 100.8309162684397 -2.0541034697694C101.7510907957615 -0.878620403075 101.5755661749429 1.5361728651568 100.4426345314773 3.0254726781633C98.9692915021816 4.9509245792645 96.2300436318305 8.5465198420943 97.9746519842095 12.9080407230417A77.3691252856846 77.3691252856846 0 0 0 101.7617286515687 20.6577186785788A6.6539788073966 6.6539788073966 0 0 0 106.2774984417204 24.2373571576978A5.010430085186 5.010430085186 0 0 0 109.0327030957823 23.9660918346145C110.2188240182838 27.0085185954705 112.1815084147102 29.2105547475586 114.7877830874715 30.4285892374818C114.7877830874715 30.6785788489507 114.7877830874715 30.9338873883232 114.7877830874715 31.1785580718886A15.1908580926657 15.1908580926657 0 0 1 114.7079991689176 34.242260544359C114.5111988364845 35.6305007271972 114.2080199459796 35.9124039060877 113.4740078952836 35.9975067525452z" />
    <glyph glyph-name="map_map_statspol"
      unicode="&#xE025;"
      horiz-adv-x="128" d="M23.5841263245377 14.4292541034698L49.114980261791 7.2061500103885L49.114980261791 61.4060253480158L23.5841263245377 70.0758778308747L23.5841263245377 14.4292541034698zM52.0403906087679 7.2061500103885L77.5712445460212 14.4292541034698L77.5712445460212 70.0758778308747L52.0403906087679 61.4060253480158L52.0403906087679 7.2061500103885zM80.2307084978184 14.4292541034698L105.7615624350717 7.2061500103885L105.7615624350717 61.4060253480158L80.2307084978184 70.0758778308747L80.2307084978184 14.4292541034698zM63.9973405360482 104A64.0026594639518 64.0026594639518 0 1 1 128 40.0186162476626A63.9973405360482 63.9973405360482 0 0 1 63.9973405360482 104zM108.4210263868689 5.4455848742988A1.3350509038022 1.3350509038022 0 0 0 107.8891335965095 4.3817992935799A1.3084562642842 1.3084562642842 0 0 0 107.0859754830667 4.1105339704966A1.377602327031 1.377602327031 0 0 0 106.7242883856223 4.1584043216289L78.9009765219198 12.0410554747559L51.0723457303137 4.1637232495325A1.377602327031 1.377602327031 0 0 0 50.7106586328693 4.1158528984002L50.5776854352795 4.1158528984002L50.4447122376896 4.1158528984002A1.377602327031 1.377602327031 0 0 0 50.0830251402452 4.1637232495325L21.8927072511947 12.1421151049242A1.3350509038022 1.3350509038022 0 0 0 20.9246623727405 13.4239767296904V71.9321836692292A1.3297319758986 1.3297319758986 0 0 0 21.4565551630999 72.9959692499481A1.3456887596094 1.3456887596094 0 0 0 22.6586328693123 73.1768127986703L50.5564097236651 63.7038022023686L78.4754622896322 73.1927695823811L78.5871597756077 73.1927695823811A0.8457095366715 0.8457095366715 0 0 0 78.7467276127156 73.2246831498026A0.6967795553709 0.6967795553709 0 0 0 78.8956575940162 73.2246831498026A0.8669852482859 0.8669852482859 0 0 0 79.0605443590276 73.2246831498026A0.7446499065032 0.7446499065032 0 0 0 79.2094743403283 73.1927695823811L79.3264907542074 73.1927695823811L107.5168086432579 63.6186993559111A1.3350509038022 1.3350509038022 0 0 0 108.4210263868689 62.3581134427592z" />
    <glyph glyph-name="mark"
      unicode="&#xE026;"
      horiz-adv-x="128" d="M64 92C50.11 92 37.052 86.592 27.23 76.77S12 53.89 12 40C12 26.11 17.408 13.052 27.23 3.23S50.11 -12 64 -12C77.89 -12 90.948 -6.59 100.77 3.23S116 26.11 116 40C116 53.89 110.59 66.948 100.77 76.77S77.89 92 64 92zM64 104V104C99.346 104 128 75.346 128 40S99.346 -24 64 -24C28.654 -24 0 4.654 0 40S28.654 104 64 104zM56 16H72V0H56zM56 80H72V32H56z" />
    <glyph glyph-name="marker_black"
      unicode="&#xE027;"
      horiz-adv-x="128" d="M65.1776 101.952C41.79968 101.952 22.85056 82.99776 22.85056 59.61472C22.85056 36.2368 65.1776 -22.976 65.1776 -22.976S107.52 36.2368 107.52 59.61472C107.52 82.99776 88.55552 101.952 65.1776 101.952zM65.1776 33.07776C50.17088 33.07776 38.01088 45.24288 38.01088 60.2496S50.176 87.41632 65.1776 87.41632C80.18432 87.41632 92.34944 75.25632 92.34944 60.2496S80.18432 33.07776 65.1776 33.07776z" />
    <glyph glyph-name="marker_green"
      unicode="&#xE028;"
      horiz-adv-x="128" d="M65.1776 101.952C41.79968 101.952 22.85056 82.99776 22.85056 59.61472C22.85056 36.2368 65.1776 -22.976 65.1776 -22.976S107.52 36.2368 107.52 59.61472C107.52 82.99776 88.55552 101.952 65.1776 101.952zM65.1776 33.07776C50.17088 33.07776 38.01088 45.24288 38.01088 60.2496S50.176 87.41632 65.1776 87.41632C80.18432 87.41632 92.34944 75.25632 92.34944 60.2496S80.18432 33.07776 65.1776 33.07776z" />
    <glyph glyph-name="marker_red"
      unicode="&#xE029;"
      horiz-adv-x="128" d="M65.1776 101.952C41.79968 101.952 22.85056 82.99776 22.85056 59.61472C22.85056 36.2368 65.1776 -22.976 65.1776 -22.976S107.52 36.2368 107.52 59.61472C107.52 82.99776 88.55552 101.952 65.1776 101.952zM65.1776 33.07776C50.17088 33.07776 38.01088 45.24288 38.01088 60.2496S50.176 87.41632 65.1776 87.41632C80.18432 87.41632 92.34944 75.25632 92.34944 60.2496S80.18432 33.07776 65.1776 33.07776z" />
    <glyph glyph-name="marker_school"
      unicode="&#xE02A;"
      horiz-adv-x="147.38672223876154" d="M1.8195891634415 84.6418576957428H143.7665972015481V-21.1038999702292H1.8195891634415V84.6418576957428zM51.3581423042572 100.8371539148556H96.1333730276868V94.168502530515H51.3581423042572V100.8371539148556zM147.3771955939268 14.9258707948794V78.9258707948794A8.2786543614171 8.2786543614171 0 0 1 139.1080678773444 87.185471866627H94.6472164334623V91.6153617147961H97.0288776421554A2.3816612086931 2.3816612086931 0 0 1 99.4105388508485 93.9970229234891V101.6183387913069A2.3816612086931 2.3816612086931 0 0 1 97.0288776421554 104H50.3483179517714A2.3816612086931 2.3816612086931 0 0 1 47.9666567430783 101.6183387913069V93.9970229234891A2.3816612086931 2.3816612086931 0 0 1 50.3483179517714 91.6153617147961H52.7299791604644V87.1759452217922H8.2786543614171A8.2691277165823 8.2691277165823 0 0 1 0.0095266448348 78.9258707948794V16.8407264066687H0.0095266448348V-21.2658529324204A2.7246204227449 2.7246204227449 0 0 1 2.7150937779101 -23.9618934206609H144.6621018160167A2.7246204227449 2.7246204227449 0 0 1 147.3867222387615 -21.237272997916V14.9639773742185zM52.7299791604644 99.2366775826139H94.6472164334623V96.3786841321822H52.7299791604644zM57.4933015778506 91.6153617147961H89.8838940160762V87.1759452217922H57.4933015778506zM5.4206609109854 78.9258707948794A2.8579934504317 2.8579934504317 0 0 0 8.2786543614171 81.7838642453111H139.1080678773445A2.8579934504317 2.8579934504317 0 0 0 141.9660613277761 78.9258707948794V14.9353974397142H141.9660613277761V11.8011312890741A2.8579934504317 2.8579934504317 0 0 0 139.1080678773445 9.0669842214945H124.0464423935695V18.7365287287883A2.7150937779101 2.7150937779101 0 0 1 121.3218219708247 21.4516225066984H107.9845192021435A2.7150937779101 2.7150937779101 0 0 1 105.2694254242334 18.7365287287883V9.0574575766597H42.1172968145281V18.7365287287883A2.7150937779101 2.7150937779101 0 0 1 39.3926763917833 21.4516225066984H26.0553736231021A2.7150937779101 2.7150937779101 0 0 1 23.340279845192 18.7365287287883V9.0574575766597H8.2786543614171A2.8579934504317 2.8579934504317 0 0 0 5.4206609109854 11.7820779994046V16.8311997618339H5.4206609109854zM118.6067281929146 16.0500148853826V-3.2795474843703H110.7091396248884V16.0500148853826zM36.6775826138732 16.0500148853826V-3.2795474843703H28.779994045847V16.0500148853826zM5.439714200655 -18.560285799345V4.151235486752A8.240547782078 8.240547782078 0 0 1 8.2977076510866 3.6463233105091H23.340279845192V-6.0327478416195A2.7246204227449 2.7246204227449 0 0 1 26.0553736231021 -8.7192616850253H39.3926763917833A2.7246204227449 2.7246204227449 0 0 1 42.1172968145281 -5.9946412622804V3.6653766001786H105.2694254242334V-6.01369455195A2.7246204227449 2.7246204227449 0 0 1 107.9845192021435 -8.7383149746948H121.3218219708247A2.7246204227449 2.7246204227449 0 0 1 124.0464423935695 -6.01369455195V3.6653766001786H139.1080678773445A8.240547782078 8.240547782078 0 0 1 141.9660613277761 4.1702887764216V-18.5412325096755z" />
    <glyph glyph-name="marker_statspol"
      unicode="&#xE02B;"
      horiz-adv-x="128" d="M64.0026594639518 104A64.0026594639518 64.0026594639518 0 1 1 128.0053189279036 40.0186162476626A64.0026594639518 64.0026594639518 0 0 1 64.0026594639518 104zM65.0664450446707 -15.0056929150218L64.0026594639518 -16.5215873675462L62.9388738832329 -15.0056929150218C61.4282983586121 -12.878121753584 25.9244546021193 37.0027841263245 25.9244546021193 57.5019322667775A38.0994805734469 38.0994805734469 0 1 0 102.1234157490131 57.5019322667775C102.1021400373987 37.0027841263245 66.6195719925203 -12.8940785372948 65.0824018283815 -15.0056929150218zM63.9973405360482 92.9419488884272A35.4772491169749 35.4772491169749 0 0 1 28.5626428423021 57.5019322667775C28.5626428423021 39.7845834199044 57.9390816538542 -3.2402243922709 63.9973405360482 -11.920714730937C70.0555994182423 -3.2402243922709 99.4426760856015 39.7845834199044 99.4426760856015 57.5019322667775A35.4825680448785 35.4825680448785 0 0 1 63.9973405360482 92.9419488884272zM63.9973405360482 33.1199667567006A24.9298150841471 24.9298150841471 0 1 0 88.9271556201953 58.0497818408477A24.9564097236651 24.9564097236651 0 0 0 63.9973405360482 33.1040099729898zM63.9973405360482 80.3201329731976A22.2703511323499 22.2703511323499 0 1 1 86.2676916683981 58.0497818408477A22.2916268439643 22.2916268439643 0 0 1 63.9973405360482 80.3201329731976z" />
    <glyph glyph-name="pencil"
      unicode="&#xE02C;"
      horiz-adv-x="128" d="M5.346882470152 4.4341941774802L0 -24L28.4346116091665 -18.653117529848L105.3576704702955 58.269941331281L82.269941331281 81.3576704702955L5.346882470152 4.4341941774802zM25.3756722117683 -12.857078565209L7.8468808395595 -16.1531191604405L11.142921434791 1.3756722117683L82.269941331281 72.5026921082583L96.5026921082583 58.269941331281L25.3756722117683 -12.857078565209zM104.9126882926718 104L87.5863512883312 86.6736629956594L110.6736629956594 63.5863512883312L128 80.9126882926718L104.9126882926718 104zM96.4413296503684 86.6736629956594L104.9126882926718 95.1450216379628L119.1450216379628 80.9126882926718L110.6736629956594 72.4413296503684L96.4413296503684 86.6736629956594z" />
    <glyph glyph-name="person"
      unicode="&#xE02D;"
      horiz-adv-x="102.34880000000001" d="M50.6624 46.7328A28.8341333333333 28.8341333333333 0 0 1 79.3941333333333 75.5157333333333A28.8085333333333 28.8085333333333 0 0 1 50.816 104A28.3989333333333 28.3989333333333 0 0 1 22.0586666666667 75.456A28.4501333333333 28.4501333333333 0 0 1 50.6624 46.7328zM17.8346666666667 -24V-0.6016H21.6917333333333V-24H80.64V-0.6016H84.5056V-4.3733333333333Q84.5056 -14.1781333333333 84.5056 -24H102.3488Q102.3488 -2.3594666666667 102.3488 19.264C102.3488 32.2688 93.8154666666667 40.9472 80.8704 40.9813333333333C78.5322666666667 40.9813333333333 76.1941333333333 40.9813333333333 73.8645333333333 40.9813333333333C66.2954666666667 40.9813333333333 58.7434666666667 40.9813333333333 51.1914666666667 40.9813333333333S36.0704 40.9813333333333 28.5184 40.9813333333333C26.1802666666667 40.9813333333333 23.8421333333333 40.9813333333333 21.4954666666667 40.9813333333333C8.576 40.9813333333333 0.0426666666667 32.2688 0.0256 19.264Q0.0256 -2.368 0.0256 -24z" />
    <glyph glyph-name="phone"
      unicode="&#xE02E;"
      horiz-adv-x="128" d="M8.504 99.248C13.616 104.372 29.068 105.228 29.184 102.516C29.3 99.808 43.1 69.752 43.22 67.04S34.124 55.092 31.428 52.388C28.756 49.712 49.46 26.256 49.852 25.812C50.292 25.416 73.692 4.664 76.364 7.344C79.06 10.048 88.28 19.284 90.976 19.164C93.68 19.048 123.668 5.216 126.372 5.092C129.076 4.976 128.224 -10.508 123.112 -15.636C118.74 -20.016 96.104 -35.92 56.744 -7.52C52.428 -5.032 45.592 0.676 35.224 11.064C35.22 11.068 35.212 11.076 35.204 11.08C35.196 11.092 35.188 11.096 35.18 11.104S35.164 11.12 35.156 11.128C35.152 11.136 35.144 11.144 35.14 11.148C24.78 21.54 19.084 28.396 16.6 32.72C-11.732 72.176 4.136 94.868 8.504 99.248z" />
    <glyph glyph-name="request_feature"
      unicode="&#xE02F;"
      horiz-adv-x="128" d="M108 104H20A20 20 0 0 1 0 84V20A20 20 0 0 1 20 0H24V-20A4 4 0 0 1 26.472 -23.696A3.912 3.912 0 0 1 28 -24A4 4 0 0 1 30.832 -22.832L53.656 0H108A20 20 0 0 1 128 20V84A20 20 0 0 1 108 104zM120 20A12 12 0 0 0 108 8H52A4 4 0 0 1 49.168 6.832L32 -10.344V4A4 4 0 0 1 28 8H20A12 12 0 0 0 8 20V84A12 12 0 0 0 20 96H108A12 12 0 0 0 120 84zM92 52A4 4 0 0 0 88 48H68V28A4 4 0 0 0 64 24A4 4 0 0 0 60 28V48H40A4 4 0 0 0 36 52A4 4 0 0 0 40 56H60V76A4 4 0 0 0 64 80A4 4 0 0 0 68 76V56H88A4 4 0 0 0 92 52z" />
    <glyph glyph-name="save"
      unicode="&#xE030;"
      horiz-adv-x="128" d="M76 64A4 4 0 0 1 80 68V84A4 4 0 1 1 72 84V68A4 4 0 0 1 76 64zM120 -8A8 8 0 0 0 112 -16H16A8 8 0 0 0 8 -8V88A8 8 0 0 0 16 96H24V56A8 8 0 0 1 32 48H96A8 8 0 0 1 104 56V96H112A8 8 0 0 0 120 88V-8zM32 96H96V60A4 4 0 0 0 92 56H36A4 4 0 0 0 32 60V96zM112 104H16A16 16 0 0 1 0 88V-8A16 16 0 0 1 16 -24H112A16 16 0 0 1 128 -8V88A16 16 0 0 1 112 104z" />
    <glyph glyph-name="school_statspol"
      unicode="&#xE031;"
      horiz-adv-x="128" d="M55.4445044670684 71.6662372740495H73.5288593392894V69.1876168709744H55.4445044670684V71.6662372740495zM92.6025348015791 22.5512570122585V17.1472262622065A1.521213380428 1.521213380428 0 0 0 91.081321421151 15.6260128817785H83.6348223561188A1.521213380428 1.521213380428 0 0 0 82.1136089756908 17.1472262622065V22.5512570122585H46.8597548306669V17.1472262622065A1.521213380428 1.521213380428 0 0 0 45.3385414502389 15.6260128817785H37.8920423852067A1.521213380428 1.521213380428 0 0 0 36.3708290047787 17.1472262622065V22.5512570122585H27.9616039891959A4.4732183669229 4.4732183669229 0 0 0 26.3659256181176 22.8384791190526V10.1581549968834H102.570205692915V22.8384791190526A4.4732183669229 4.4732183669229 0 0 0 100.9745273218367 22.5512570122585zM52.7850405152711 75.921379596925H76.1883232910867V74.3257012258467H52.7850405152711V75.921379596925zM39.4132557656347 29.4605443590277H43.8226469977145V18.6684396426346H39.4132557656347V29.4605443590277zM85.1560357365468 29.4605443590277H89.5654269686266V18.6684396426346H85.1560357365468V29.4605443590277zM63.9973405360482 104A64.0026594639518 64.0026594639518 0 1 1 128 40.0186162476626A63.9973405360482 63.9973405360482 0 0 1 63.9973405360482 104zM105.6339081653854 8.6369416164554A1.521213380428 1.521213380428 0 0 0 104.1126947849574 7.1157282360274H24.8606690214004A1.521213380428 1.521213380428 0 0 0 23.318179929358 8.6369416164554V29.9126532308332H23.318179929358V64.5761063785581A4.61682942032 4.61682942032 0 0 0 27.9296904217744 69.1876168709744H52.7850405152711V71.6662372740495H51.4553085393725A1.3297319758986 1.3297319758986 0 0 0 50.1255765634739 72.9959692499481V77.2511115728236A1.3297319758986 1.3297319758986 0 0 0 51.4553085393725 78.5808435487222H77.5180552669852A1.3297319758986 1.3297319758986 0 0 0 78.8477872428839 77.2511115728236V72.9959692499481A1.3297319758986 1.3297319758986 0 0 0 77.5180552669852 71.6662372740495H76.1883232910867V69.1876168709744H101.0117598171619A4.61682942032 4.61682942032 0 0 0 105.6232703095782 64.5761063785581V28.8488676501143H105.6232703095782zM101.0117598171619 66.1664658217328H27.9616039891959A1.5956783710783 1.5956783710783 0 0 1 26.3659256181176 64.5707874506545V29.9126532308332H26.3659256181176V27.0936214419281A1.5956783710783 1.5956783710783 0 0 1 27.9616039891959 25.5724080615001H36.3708290047787V30.9764388115521A1.521213380428 1.521213380428 0 0 0 37.8920423852067 32.4976521919801H45.3385414502389A1.521213380428 1.521213380428 0 0 0 46.8597548306669 30.9764388115521V25.5724080615001H82.1136089756908V30.9764388115521A1.521213380428 1.521213380428 0 0 0 83.6348223561189 32.4976521919801H91.0813214211511A1.521213380428 1.521213380428 0 0 0 92.6025348015791 30.9764388115521V25.5724080615001H101.0117598171619A1.5956783710783 1.5956783710783 0 0 1 102.6074381882402 27.0989403698317V28.8488676501143H102.6074381882402V64.5761063785581A1.5956783710783 1.5956783710783 0 0 1 101.0117598171619 66.1664658217328z" />
    <glyph glyph-name="search"
      unicode="&#xE032;"
      horiz-adv-x="128" d="M124.03275 -4.9245L93.71375 20.86225C90.5795 23.683 87.2275 24.978 84.51975 24.853C91.67675 33.23625 96 44.11275 96 56C96 82.50975 74.50975 104 48 104C21.4905 104 0 82.50975 0 56S21.49025 8 48 8C59.88725 8 70.76375 12.32325 79.147 19.4805C79.022 16.77275 80.317 13.421 83.13775 10.28675L108.9245 -20.0325C113.33975 -24.93825 120.55225 -25.35175 124.95175 -20.952C129.35175 -16.55225 128.9385 -9.33975 124.03275 -4.9245zM48 24C30.327 24 16 38.32725 16 56C16 73.673 30.327 88 48 88C65.67275 88 80 73.673 80 56C80 38.32725 65.67325 24 48 24z" />
    <glyph glyph-name="show_municipalities_statspol"
      unicode="&#xE033;"
      horiz-adv-x="128" d="M64.0026594639518 104A64.0026594639518 64.0026594639518 0 1 1 128.0053189279036 40.0186162476626A64.0026594639518 64.0026594639518 0 0 1 64.0026594639518 104zM65.0664450446707 -15.0056929150218L64.0026594639518 -16.5215873675462L62.9388738832329 -15.0056929150218C61.4282983586121 -12.878121753584 25.9244546021193 37.0027841263245 25.9244546021193 57.5019322667775A38.0994805734469 38.0994805734469 0 1 0 102.1234157490131 57.5019322667775C102.1021400373987 37.0027841263245 66.6195719925203 -12.8940785372948 65.0824018283815 -15.0056929150218zM63.9973405360482 92.9419488884272A35.4772491169749 35.4772491169749 0 0 1 28.5626428423021 57.5019322667775C28.5626428423021 39.7845834199044 57.9390816538542 -3.2402243922709 63.9973405360482 -11.920714730937C70.0555994182423 -3.2402243922709 99.4426760856015 39.7845834199044 99.4426760856015 57.5019322667775A35.4825680448785 35.4825680448785 0 0 1 63.9973405360482 92.9419488884272zM63.9973405360482 33.1199667567006A24.9298150841471 24.9298150841471 0 1 0 88.9271556201953 58.0497818408477A24.9564097236651 24.9564097236651 0 0 0 63.9973405360482 33.1040099729898zM50.3968418865572 43.2099729898192V58.3689175150634H53.3222522335342V62.8900062331186H55.9817161853314V58.3689175150634H57.5773945564097V78.8467899439019L78.8531061707874 71.554539788074V43.2099729898192H80.5870766673592A22.2703511323499 22.2703511323499 0 1 1 47.4182422605444 43.2099729898192zM60.2368585082069 75.1235404113858V58.3689175150634H66.8855183877V43.2099729898192H70.0130479950135V46.4013297319759A3.3190110118429 3.3190110118429 0 1 0 72.6725119468107 46.4013297319759V43.2099729898192H76.1936422189902V69.6503635985872zM61.8325368792853 70.8683980885103H67.1514647828797V68.2089341367131H61.8325368792853zM74.5979638479119 55.4435071680864H67.6833575732391V58.1029711198837H74.5979638479119zM74.5979638479119 58.6348639102431H61.8325368792853V61.2943278620403H74.5979638479119zM74.5979638479119 61.8262206523998H61.8325368792853V64.485684604197H74.5979638479119zM74.5979638479119 65.0175773945564H61.8325368792853V67.6770413463536H74.5979638479119zM50.2532308331602 40.550509038022A22.190567213796 22.190567213796 0 0 1 77.7467691668398 40.550509038022zM53.0563058383545 55.7094535632662V43.475919384999H64.2260544359028V55.7094535632662zM57.5773945564097 45.8694369416165H54.9179306046125V47.4651153126948H57.5773945564097zM57.5773945564097 49.0607936837731H54.9179306046125V50.6564720548514H57.5773945564097zM57.5773945564097 52.2521504259298H54.9179306046125V53.8478287970081H57.5773945564097zM62.3644296696447 45.8694369416165H59.7049657178475V47.4651153126948H62.3644296696447zM62.3644296696447 49.0607936837731H59.7049657178475V50.6564720548514H62.3644296696447zM62.3644296696447 52.2521504259298H59.7049657178475V53.8478287970081H62.3644296696447z" />
    <glyph glyph-name="show_pz_statspol"
      unicode="&#xE034;"
      horiz-adv-x="128" d="M64.0026594639518 104A64.0026594639518 64.0026594639518 0 1 1 128 40.0186162476626A64.0026594639518 64.0026594639518 0 0 1 64.0026594639518 104zM65.0664450446707 -15.0056929150218L64.0026594639518 -16.5215873675462L62.9388738832329 -15.0056929150218C61.4282983586121 -12.878121753584 25.9297735300229 37.0027841263245 25.9297735300229 57.5019322667775A38.0994805734469 38.0994805734469 0 1 0 102.1287346769167 57.5019322667775C102.1021400373987 37.0027841263245 66.5876584250987 -12.8940785372948 65.0770829004779 -15.0056929150218zM63.9973405360482 92.9419488884272A35.4772491169749 35.4772491169749 0 0 1 28.5626428423021 57.5019322667775C28.5626428423021 39.7845834199044 57.9390816538542 -3.2402243922709 63.9973405360482 -11.920714730937C70.0555994182423 -3.2402243922709 99.4426760856015 39.7845834199044 99.4426760856015 57.5019322667775A35.4825680448785 35.4825680448785 0 0 1 63.9973405360482 92.9419488884272zM63.9973405360482 33.1199667567006A24.9298150841471 24.9298150841471 0 1 0 88.9271556201953 58.0497818408477A24.9564097236651 24.9564097236651 0 0 0 63.9973405360482 33.1040099729898zM86.2676916683981 57.954041138583A22.2703511323499 22.2703511323499 0 1 1 62.3006025348016 35.7634739247871C61.3166008726366 36.9549137751922 60.0985663827135 38.5771867857885 59.0188240182838 40.0984001662165C57.1997506752545 42.6461666320382 55.0402659463952 46.4811136505298 54.9711198836485 50.3107417411178C54.9072927488053 53.167006025348 55.5508830251402 54.7041761894868 59.3007271971743 60.6135050903802C60.7527945148556 62.8900062331186 61.7687097444421 66.8526075212965 61.6091419073343 67.6770413463536S62.9707874506545 66.3898607936838 63.5505505921463 64.9537502597133C64.2845626428423 63.0761687097444 64.1728651568668 61.6294203199668 62.7846249740287 57.7146893829213C62.125077913983 55.8583835445668 61.0346976937461 52.8638271348431 62.125077913983 51.5287762310409C61.9974236442967 51.6830251402452 65.6568460419697 55.4275503843757 66.5291502181592 59.305048826096A17.4407645958861 17.4407645958861 0 0 1 65.6355703303553 69.1344275919385C64.5132765426969 71.698150841471 63.1622688551839 73.7991273633908 63.4335341782672 77.1713276542697A14.137710367754 14.137710367754 0 0 0 63.9654269686266 80.0541865780179A29.4987741533347 29.4987741533347 0 0 1 65.4919592769582 76.6713484313318C66.9972158736755 73.8257220029088 70.124745480989 69.613131103262 71.6034074381882 66.7728236027426A15.9886972782049 15.9886972782049 0 0 0 72.4810305422813 54.3797215873676C70.8002493247455 49.6671514647829 69.1832952420528 48.0501973820902 67.4918761687097 44.2258882194058A56.9125285684604 56.9125285684604 0 0 1 64.603698317058 35.7156035736547A22.2543943486391 22.2543943486391 0 0 1 86.2676916683981 57.954041138583z" />
    <glyph glyph-name="sort_down"
      unicode="&#xE035;"
      horiz-adv-x="128" d="M32 -8L64 34.6666666666667H42.6666666666667V88H21.3333333333333V34.6666666666667H0L32 -8zM117.3333333333333 56H74.6666666666667V66.6666666666667H117.3333333333333V56zM128 88H74.6666666666667V77.3333333333333H128V88zM106.6666666666667 45.3333333333333H74.6666666666667V34.6666666666667H106.6666666666667V45.3333333333333zM96 24H74.6666666666667V13.3333333333333H96V24zM85.3333333333333 2.6666666666667H74.6666666666667V-8H85.3333333333333V2.6666666666667z" />
    <glyph glyph-name="sort_up"
      unicode="&#xE036;"
      horiz-adv-x="128" d="M32 88L0 45.3333333333333H21.3333333333333V-8H42.6666666666667V45.3333333333333H64L32 88zM117.3333333333333 56H74.6666666666667V66.6666666666667H117.3333333333333V56zM128 88H74.6666666666667V77.3333333333333H128V88zM106.6666666666667 45.3333333333333H74.6666666666667V34.6666666666667H106.6666666666667V45.3333333333333zM96 24H74.6666666666667V13.3333333333333H96V24zM85.3333333333333 2.6666666666667H74.6666666666667V-8H85.3333333333333V2.6666666666667z" />
    <glyph glyph-name="stripes_left"
      unicode="&#xE037;"
      horiz-adv-x="0" d="" />
    <glyph glyph-name="table_statspol"
      unicode="&#xE038;"
      horiz-adv-x="128" d="M44.0619987533763 38.1569914814045H63.8750051942655V26.1894036983171H44.0619987533763V38.1569914814045zM44.0619987533763 69.5386661126117H63.8750051942655V55.9753999584459H44.0619987533763V69.5386661126117zM44.0619987533763 23.5299397465198H63.8750051942655V9.4347808019946H44.0619987533763V23.5299397465198zM44.0619987533763 53.3159360066487H63.8750051942655V40.8164554332017H44.0619987533763V53.3159360066487zM19.461957199252 68.118512362352V55.9753999584459H41.4025348015791V69.5386661126117H20.8821109495117A1.4254726781633 1.4254726781633 0 0 1 19.461957199252 68.118512362352zM66.5344691460628 23.5299397465198H87.1453147724912V9.4347808019946H66.5344691460628V23.5299397465198zM19.461957199252 10.8549345522543A1.4254726781633 1.4254726781633 0 0 1 20.8821109495117 9.4347808019946H41.4025348015791V23.5299397465198H19.461957199252zM19.461957199252 38.1569914814045H41.4025348015791V26.1894036983171H19.461957199252V38.1569914814045zM19.461957199252 53.3159360066487H41.4025348015791V40.8164554332017H19.461957199252V53.3159360066487zM89.8047787242884 53.3159360066487H108.8199459796385V40.8164554332017H89.8047787242884V53.3159360066487zM89.8047787242884 38.1569914814045H108.8199459796385V26.1894036983171H89.8047787242884V38.1569914814045zM63.9973405360482 104A64.0026594639518 64.0026594639518 0 1 1 128 40.0186162476626A63.9973405360482 63.9973405360482 0 0 1 63.9973405360482 104zM107.3997922293788 6.7753168501974H20.8821109495117A4.0849366299605 4.0849366299605 0 0 0 16.8024932474548 10.8549345522543V68.118512362352A4.0849366299605 4.0849366299605 0 0 0 20.8821109495117 72.1981300644089H107.3997922293788A4.0849366299605 4.0849366299605 0 0 0 111.4794099314357 68.118512362352V10.8549345522543A4.0849366299605 4.0849366299605 0 0 0 107.3997922293788 6.7753168501974zM66.5344691460628 38.1569914814045H87.1453147724912V26.1894036983171H66.5344691460628V38.1569914814045zM107.3997922293788 69.5386661126117H89.8047787242884V55.9753999584459H108.8199459796385V68.118512362352A1.4254726781633 1.4254726781633 0 0 1 107.3997922293788 69.5386661126117zM66.5344691460628 53.3159360066487H87.1453147724912V40.8164554332017H66.5344691460628V53.3159360066487zM66.5344691460628 69.5386661126117H87.1453147724912V55.9753999584459H66.5344691460628V69.5386661126117zM89.8047787242884 9.4347808019946H107.3997922293788A1.4254726781633 1.4254726781633 0 0 1 108.8199459796385 10.8549345522543V23.5299397465198H89.8047787242884z" />
    <glyph glyph-name="teams"
      unicode="&#xE039;"
      horiz-adv-x="128" d="M69.12 93.76C59.25376 93.76 51.2 85.70624 51.2 75.84C51.2 74.06336 51.4816 72.34816 51.96544 70.72H12.8C8.5888 70.72 5.12 67.2512 5.12 63.04V16.96C5.12 12.7488 8.5888 9.28 12.8 9.28H41.088C42.39104 -5.04576 54.46144 -16.32 69.12 -16.32C82.2272 -16.32 92.77696 -7.1296 95.8976 5.02016C98.92864 3.03104 102.3616 1.6 106.24 1.6C116.8128 1.6 125.44 10.2272 125.44 20.8V50.24A2.56 2.56 0 0 1 122.88 52.8H66.56V58.11456C67.39968 57.99424 68.2496 57.92 69.12 57.92C78.98624 57.92 87.04 65.97376 87.04 75.84S78.98624 93.76 69.12 93.76zM69.12 88.64C76.22144 88.64 81.92 82.94144 81.92 75.84S76.22144 63.04 69.12 63.04A12.8512 12.8512 0 0 0 66.52928 63.32416C66.37568 67.4048 62.99392 70.72 58.88 70.72H57.40032A12.67968 12.67968 0 0 0 56.32 75.84C56.32 82.94144 62.01856 88.64 69.12 88.64zM107.52 83.52C103.46752 83.52 100.10112 81.9072 97.92512 79.45984C95.74912 77.01248 94.72 73.84832 94.72 70.72S95.74912 64.42752 97.92512 61.98016S103.46752 57.92 107.52 57.92C111.57248 57.92 114.93888 59.5328 117.11488 61.98016C119.29088 64.42752 120.32 67.59168 120.32 70.72S119.29088 77.01248 117.11488 79.45984S111.57248 83.52 107.52 83.52zM107.52 78.4C110.29248 78.4 112.04864 77.4528 113.28512 76.06016C114.5216 74.66752 115.2 72.71168 115.2 70.72C115.2 68.72832 114.5216 66.77248 113.28512 65.37984C112.04864 63.9872 110.29248 63.04 107.52 63.04C104.74752 63.04 102.99136 63.9872 101.75488 65.37984C100.5184 66.77248 99.84 68.72832 99.84 70.72C99.84 72.71168 100.5184 74.66752 101.75488 76.06016C102.99136 77.4528 104.74752 78.4 107.52 78.4zM12.8 65.6H58.88C60.3264 65.6 61.44 64.4864 61.44 63.04V62.1056A2.56 2.56 0 0 1 61.44 60.6848V50.67008A2.56 2.56 0 0 1 61.44 49.83552V16.96C61.44 15.5136 60.3264 14.4 58.88 14.4H43.95008A2.56 2.56 0 0 1 43.11552 14.4H12.8C11.3536 14.4 10.24 15.5136 10.24 16.96V63.04C10.24 64.4864 11.3536 65.6 12.8 65.6zM23.04 55.36V50.24H33.28V24.64H38.4V50.24H48.64V55.36H23.04zM66.56 47.68H92.16V11.84C92.16 -0.91648 81.87648 -11.2 69.12 -11.2A22.99136 22.99136 0 0 0 46.23104 9.28H58.88C63.0912 9.28 66.56 12.7488 66.56 16.96V47.68zM97.28 47.68H120.32V20.8C120.32 12.992 114.048 6.72 106.24 6.72C102.64832 6.72 99.45856 8.12544 96.9728 10.32448C97.00608 10.8544 97.28 11.3024 97.28 11.84V47.68z" />
    <glyph glyph-name="triangle-down"
      unicode="&#xE03A;"
      horiz-adv-x="128" d="M32 65.6H96L64 8L32 65.6z" />
    <glyph glyph-name="triangle-up"
      unicode="&#xE03B;"
      horiz-adv-x="128" d="M96 14.4H32L64 72L96 14.4z" />
    <glyph glyph-name="twitter"
      unicode="&#xE03C;"
      horiz-adv-x="128" d="M63.9282967032967 -23.1532967032967L63.9282967032967 -23.1532967032967C29.0098317032967 -23.1532967032967 0.7032967032967 5.1532382967033 0.7032967032967 40.0717032967033V40.0717032967033C0.7032967032967 74.9901682967033 29.0098317032967 103.2967032967033 63.9282967032967 103.2967032967033H63.9282967032967C98.8467617032967 103.2967032967033 127.1532967032967 74.9901682967033 127.1532967032967 40.0717032967033V40.0717032967033C127.1532967032967 5.1532382967033 98.8467617032967 -23.1532967032967 63.9282967032967 -23.1532967032967zM25.8303167032967 75.9048232967033L55.3929217032967 36.3765532967033L25.6434517032967 4.2385832967033H32.3382767032967L58.3841667032967 32.3765182967033L79.4282567032967 4.2385832967033H102.2131417032967L70.9870167032967 45.9895632967033L98.6767567032967 75.9034182967033H91.9819317032967L67.9957717032967 49.9910032967033L48.6152017032967 75.9048232967033H25.8303167032967zM35.6765567032967 70.9732732967033H46.1438067032967L92.3654967032967 9.1715382967033H81.8982467032967L35.6765567032967 70.9732732967033z" />
    <glyph glyph-name="twitter_inverted"
      unicode="&#xE03D;"
      horiz-adv-x="128" d="M63.9282967032967 -23.1532967032967L63.9282967032967 -23.1532967032967C29.0098317032967 -23.1532967032967 0.7032967032967 5.1532382967033 0.7032967032967 40.0717032967033V40.0717032967033C0.7032967032967 74.9901682967033 29.0098317032967 103.2967032967033 63.9282967032967 103.2967032967033H63.9282967032967C98.8467617032967 103.2967032967033 127.1532967032967 74.9901682967033 127.1532967032967 40.0717032967033V40.0717032967033C127.1532967032967 5.1532382967033 98.8467617032967 -23.1532967032967 63.9282967032967 -23.1532967032967zM25.8303167032967 75.9048232967033L55.3929217032967 36.3765532967033L25.6434517032967 4.2385832967033H32.3382767032967L58.3841667032967 32.3765182967033L79.4282567032967 4.2385832967033H102.2131417032967L70.9870167032967 45.9895632967033L98.6767567032967 75.9034182967033H91.9819317032967L67.9957717032967 49.9910032967033L48.6152017032967 75.9048232967033H25.8303167032967zM35.6765567032967 70.9732732967033H46.1438067032967L92.3654967032967 9.1715382967033H81.8982467032967L35.6765567032967 70.9732732967033z" />
    <glyph glyph-name="undo"
      unicode="&#xE03E;"
      horiz-adv-x="128" d="M64 88V80C41.944 80 24 62.056 24 40S41.944 0 64 0S104 17.944 104 40A39.964 39.964 0 0 1 84 74.56V60H76V88H104V80H90.5A48.016 48.016 0 0 0 112 40C112 13.532 90.468 -8 64 -8S16 13.532 16 40S37.532 88 64 88z" />
    <glyph glyph-name="unpublished"
      unicode="&#xE03F;"
      horiz-adv-x="128" d="M32.43479564 20.4347956C18.46883264 28.6795412 12 40 12 40C12 40 28 68 64 68C69.2180428 68 74.0159008 67.41174136 78.4057552 66.40575512L75.0076068 63.0076068C71.5885936 63.6397816 67.9203716 64 64 64C32 64 16.79980468 40 16.79980468 40C16.79980468 40 22.85891232 30.43311 35.37970852 23.3797084L32.43479564 20.4347956L32.43479564 20.4347956L32.43479564 20.4347956zM49.594244 13.594244C53.9840984 12.5882576 58.7819568 11.9999996 64 12C100 12.000004 116 40 116 40C116 40 109.5311672 51.3204576 95.5652032 59.5652032L92.6202908 56.6202908C105.1410876 49.5668896 111.2001952 40 111.2001952 40C111.2001952 40 96 16.000004 64 16C60.079628 15.9999996 56.411406 16.360218 52.9923924 16.9923924L49.594244 13.594244L49.594244 13.594244L49.594244 13.594244zM79.5946124 43.5946124C79.8598632 42.439154 80 41.2359424 80 40C80 31.1634436 72.8365564 24 64 24C62.7640576 24 61.560846 24.1401368 60.4053876 24.4053876L64 28C67.0710676 27.9999996 70.1421356 29.1715728 72.4852812 31.5147188C74.8284272 33.8578644 76.0000004 36.9289324 76 40L79.5946124 43.5946124L79.5946124 43.5946124L79.5946124 43.5946124zM67.5946124 55.5946124C66.439154 55.8598632 65.2359424 56 64 56C55.1634436 56 48 48.8365564 48 40C48 38.7640576 48.1401368 37.560846 48.4053876 36.4053876L52 40C51.9999996 43.0710676 53.1715728 46.1421356 55.5147188 48.4852812C57.8578644 50.8284272 60.9289324 52.0000004 64 52L67.5946124 55.5946124L67.5946124 55.5946124L67.5946124 55.5946124zM96 76L28 8L32 4L100 72L96 76L96 76z" />
    <glyph glyph-name="updates"
      unicode="&#xE040;"
      horiz-adv-x="128" d="M21.3333333333333 40A42.6666666666667 42.6666666666667 0 0 0 100.96 61.3333333333333M106.6666666666667 40A42.6666666666667 42.6666666666667 0 0 0 27.04 18.6666666666667M74.6666666666667 61.3333333333333H101.3333333333333V88M53.3333333333333 18.6666666666667H26.6666666666667V-8" />
    <glyph glyph-name="url"
      unicode="&#xE041;"
      horiz-adv-x="127.9997498177383" d="M98.2858527794663 30.8582150668358H93.7140221294029C93.046285672961 30.8582150668358 92.498386519867 30.6443092330936 92.0720759459528 30.2144961075158C91.642262820375 29.7871848045549 91.4283569866329 29.2395358337226 91.4283569866329 28.5725499240658V5.7156483141038C91.4283569866329 2.5726085605334 90.3100422768931 -0.1173511171224 88.0721619461053 -2.3557318124337C85.8342816153174 -4.5936121432215 83.1433212086149 -5.7116766706995 80.0002814550444 -5.7116766706995H20.5709862849302C17.4281967136215 -5.7116766706995 14.7374864891806 -4.5936121432215 12.4991057938694 -2.3557318124337C10.2612254630815 -0.1176012993841 9.1424103888184 2.5723583782717 9.1424103888184 5.7156483141038V65.1441929374329C9.1424103888184 68.2869825087417 10.2609752808198 70.9766920041358 12.4991057938694 73.2148225171854C14.7374864891806 75.4532032124966 17.4281967136215 76.571768104498 20.5709862849302 76.571768104498H70.8561197903942C71.5238562468361 76.571768104498 72.07175539993 76.7866746672869 72.499817249676 77.2147365170329C72.927879099422 77.6432987313023 73.1417849331642 78.1904473376112 73.1417849331642 78.8576834295297V83.4297642618548C73.1417849331642 84.0957494424649 72.927879099422 84.6438987778206 72.499817249676 85.0717104453049C72.07175539993 85.5002726595743 71.5238562468361 85.7141784933164 70.8561197903942 85.7141784933164H20.5709862849302C14.904858422249 85.7141784933164 10.0593283779003 83.7022127448317 6.0348965164075 79.6785314301239C2.0119657484847 75.6551002976778 0 70.8095702533291 0 65.1434423906479V5.7146475850571C0 0.0487699046376 2.0119657484847 -4.7975106864962 6.0351466986691 -8.8196909076339C10.059578560162 -12.8436224046034 14.9051086045107 -14.8565888821348 20.5712364671919 -14.8565888821348H80.0002814550444C85.6661591354639 -14.8565888821348 90.512189544336 -12.8436224046034 94.5361210413055 -8.8196909076339C98.5603027205366 -4.7975106864962 100.5722684690214 0.0485197223759 100.5722684690214 5.7146475850571V28.570798648234C100.5722684690214 29.2385351046759 100.3581124530175 29.7864342577698 99.9282993274397 30.2144961075158C99.4997371131703 30.6443092330936 98.9518379600764 30.8582150668358 98.2858527794663 30.8582150668358zM126.6420106835644 93.499600294746C125.7371014430435 94.4045095352669 124.6643199049308 94.8565888821348 123.4271686208898 94.8565888821348H86.856025972046C85.6181241412201 94.8565888821348 84.5460931498924 94.4045095352669 83.6419344561565 93.499600294746C82.7370252156356 92.5951914187484 82.2839451397209 91.5236607919441 82.2839451397209 90.2855087788565S82.7370252156356 87.9755759567028 83.6419344561565 87.0706667161819L96.21284255913 74.4995084309468L49.642165092929 27.927830235699C49.1653177021541 27.4517333917092 48.9276445535517 26.9038342386152 48.9276445535517 26.285884052249C48.9276445535517 25.6656822255276 49.1660682489392 25.1180332546953 49.642165092929 24.6419364107055L57.7850973463089 16.5000048863723C58.2611941902988 16.0239080423824 58.8090933433928 15.7864850760417 59.4280442588057 15.7864850760417S60.5951445095744 16.0236578601208 61.0709911713025 16.5000048863723L107.6419188197652 63.070932534835L120.2138276517854 50.4997742495998C121.1179863455213 49.5948650090789 122.1897671545872 49.1422852976876 123.4279191676749 49.1422852976876S125.7378519898285 49.5948650090789 126.6430114126111 50.4997742495998C127.5479206531321 51.4044333078591 128 52.4757137524017 128 53.7138657654893V90.2855087788565C127.9997498177383 91.5244113387292 127.5461693773003 92.5951914187484 126.6420106835644 93.499600294746z" />
    </font>
</defs>
</svg>
